  0
SECTION
  2
HEADER
  9
$ACADVER
  1
AC1014
  9
$ACADMAINTVER
 70
           0
  9
$DWGCODEPAGE
  3
ANSI_1252
  9
$INSBASE
 10
0.0
 20
0.0
 30
0.0
  9
$EXTMIN
 10
-49.182056132595
 20
-58.216414381936
 30
0.0
  9
$EXTMAX
 10
500.0
 20
130.826940292943
 30
0.0
  9
$LIMMIN
 10
-49.182056132595
 20
-58.216414381936
  9
$LIMMAX
 10
500.0
 20
130.826940292943
  9
$ORTHOMODE
 70
           0
  9
$REGENMODE
 70
           1
  9
$FILLMODE
 70
           1
  9
$QTEXTMODE
 70
           0
  9
$MIRRTEXT
 70
           1
  9
$DRAGMODE
 70
           0
  9
$LTSCALE
 40
1.0
  9
$OSMODE
 70
          37
  9
$ATTMODE
 70
           1
  9
$TEXTSIZE
 40
5.0
  9
$TRACEWID
 40
1.0
  9
$TEXTSTYLE
  7
STANDARD
  9
$CLAYER
  8
0
  9
$CELTYPE
  6
CONTINUOUS
  9
$CECOLOR
 62
           7
  9
$CELTSCALE
 40
1.0
  9
$DELOBJ
 70
           1
  9
$DISPSILH
 70
           0
  9
$DIMSCALE
 40
1.0
  9
$DIMASZ
 40
3.0
  9
$DIMEXO
 40
1.0
  9
$DIMDLI
 40
7.5
  9
$DIMRND
 40
0.01
  9
$DIMDLE
 40
0.0
  9
$DIMEXE
 40
2.0
  9
$DIMTP
 40
0.0
  9
$DIMTM
 40
0.0
  9
$DIMTXT
 40
6.0
  9
$DIMCEN
 40
0.09
  9
$DIMTSZ
 40
0.0
  9
$DIMTOL
 70
           0
  9
$DIMLIM
 70
           0
  9
$DIMTIH
 70
           1
  9
$DIMTOH
 70
           0
  9
$DIMSE1
 70
           0
  9
$DIMSE2
 70
           0
  9
$DIMTAD
 70
           1
  9
$DIMZIN
 70
           8
  9
$DIMBLK
  1

  9
$DIMASO
 70
           0
  9
$DIMSHO
 70
           1
  9
$DIMPOST
  1
<>mm
  9
$DIMAPOST
  1

  9
$DIMALT
 70
           0
  9
$DIMALTD
 70
           2
  9
$DIMALTF
 40
1.0
  9
$DIMLFAC
 40
1.0
  9
$DIMTOFL
 70
           1
  9
$DIMTVP
 40
0.0
  9
$DIMTIX
 70
           0
  9
$DIMSOXD
 70
           0
  9
$DIMSAH
 70
           0
  9
$DIMBLK1
  1

  9
$DIMBLK2
  1

  9
$DIMSTYLE
  2
STANDARD
  9
$DIMCLRD
 70
           7
  9
$DIMCLRE
 70
           7
  9
$DIMCLRT
 70
           7
  9
$DIMTFAC
 40
1.0
  9
$DIMGAP
 40
2.0
  9
$DIMJUST
 70
           0
  9
$DIMSD1
 70
           0
  9
$DIMSD2
 70
           0
  9
$DIMTOLJ
 70
           1
  9
$DIMTZIN
 70
           0
  9
$DIMALTZ
 70
           0
  9
$DIMALTTZ
 70
           0
  9
$DIMFIT
 70
           0
  9
$DIMUPT
 70
           0
  9
$DIMUNIT
 70
           2
  9
$DIMDEC
 70
           2
  9
$DIMTDEC
 70
           8
  9
$DIMALTU
 70
           2
  9
$DIMALTTD
 70
           2
  9
$DIMTXSTY
  7
STANDARD
  9
$DIMAUNIT
 70
           0
  9
$LUNITS
 70
           2
  9
$LUPREC
 70
           2
  9
$SKETCHINC
 40
1.0
  9
$FILLETRAD
 40
3.0
  9
$AUNITS
 70
           0
  9
$AUPREC
 70
           2
  9
$MENU
  1
acad
  9
$ELEVATION
 40
0.0
  9
$PELEVATION
 40
0.0
  9
$THICKNESS
 40
0.0
  9
$LIMCHECK
 70
           0
  9
$BLIPMODE
 70
           1
  9
$CHAMFERA
 40
0.0
  9
$CHAMFERB
 40
0.0
  9
$CHAMFERC
 40
0.0
  9
$CHAMFERD
 40
0.0
  9
$SKPOLY
 70
           0
  9
$TDCREATE
 40
0.000000000
  9
$TDUPDATE
 40
2449702.667959363
  9
$TDINDWG
 40
0.0000000000
  9
$TDUSRTIMER
 40
0.0000000000
  9
$USRTIMER
 70
           1
  9
$ANGBASE
 50
0.0
  9
$ANGDIR
 70
           1
  9
$PDMODE
 70
           0
  9
$PDSIZE
 40
0.0
  9
$PLINEWID
 40
0.0
  9
$COORDS
 70
           0
  9
$SPLFRAME
 70
           0
  9
$SPLINETYPE
 70
           5
  9
$SPLINESEGS
 70
          20
  9
$ATTDIA
 70
           0
  9
$ATTREQ
 70
           1
  9
$HANDLING
 70
           1
  9
$HANDSEED
  5
E1
  9
$SURFTAB1
 70
           6
  9
$SURFTAB2
 70
           6
  9
$SURFTYPE
 70
           6
  9
$SURFU
 70
           6
  9
$SURFV
 70
           6
  9
$UCSNAME
  2

  9
$UCSORG
 10
0.0
 20
0.0
 30
0.0
  9
$UCSXDIR
 10
1.0
 20
0.0
 30
0.0
  9
$UCSYDIR
 10
0.0
 20
1.0
 30
0.0
  9
$PUCSNAME
  2

  9
$PUCSORG
 10
0.0
 20
0.0
 30
0.0
  9
$PUCSXDIR
 10
1.0
 20
0.0
 30
0.0
  9
$PUCSYDIR
 10
0.0
 20
1.0
 30
0.0
  9
$USERI1
 70
           0
  9
$USERI2
 70
           0
  9
$USERI3
 70
           0
  9
$USERI4
 70
           0
  9
$USERI5
 70
           0
  9
$USERR1
 40
0.0
  9
$USERR2
 40
0.0
  9
$USERR3
 40
0.0
  9
$USERR4
 40
0.0
  9
$USERR5
 40
0.0
  9
$WORLDVIEW
 70
           1
  9
$SHADEDGE
 70
           3
  9
$SHADEDIF
 70
          70
  9
$TILEMODE
 70
           1
  9
$MAXACTVP
 70
          16
  9
$PINSBASE
 10
0.0
 20
0.0
 30
0.0
  9
$PLIMCHECK
 70
           0
  9
$PEXTMIN
 10
-20.25
 20
-14.318181818182
 30
0.0
  9
$PEXTMAX
 10
317.25
 20
224.318181818182
 30
0.0
  9
$PLIMMIN
 10
-20.25
 20
-14.318181818182
  9
$PLIMMAX
 10
317.25
 20
224.318181818182
  9
$UNITMODE
 70
           0
  9
$VISRETAIN
 70
           0
  9
$PLINEGEN
 70
           1
  9
$PSLTSCALE
 70
           1
  9
$TREEDEPTH
 70
        3020
  9
$PICKSTYLE
 70
           1
  9
$CMLSTYLE
  2
STANDARD
  9
$CMLJUST
 70
           0
  9
$CMLSCALE
 40
1.0
  9
$PROXYGRAPHICS
 70
           0
  9
$MEASUREMENT
 70
           0
  0
ENDSEC
  0
SECTION
  2
CLASSES
  0
CLASS
  1
LWPOLYLINE
  2
AcDbPolyline
  3
"AutoCAD"
 90
        0
280
           0
281
           1
  0
CLASS
  1
IMAGE
  2
AcDbRasterImage
  3
ISM
 90
      127
280
           0
281
           1
  0
CLASS
  1
OLE2FRAME
  2
AcDbOle2Frame
  3
""
 90
        0
280
           0
281
           1
  0
CLASS
  1
HATCH
  2
AcDbHatch
  3
"ACAD_SEDONA"
 90
        0
280
           0
281
           1
  0
CLASS
  1
DICTIONARYVAR
  2
AcDbDictionaryVar
  3
"AutoCAD"
 90
        0
280
           0
281
           0
  0
CLASS
  1
RASTERVARIABLES
  2
AcDbRasterVariables
  3
ISM
 90
        0
280
           0
281
           0
  0
CLASS
  1
IMAGEDEF
  2
AcDbRasterImageDef
  3
ISM
 90
        0
280
           0
281
           0
  0
CLASS
  1
IMAGEDEF_REACTOR
  2
AcDbRasterImageDefReactor
  3
ISM
 90
        1
280
           0
281
           0
  0
CLASS
  1
IDBUFFER
  2
AcDbIdBuffer
  3
"Acad"
 90
        0
280
           0
281
           0
  0
CLASS
  1
SPATIAL_FILTER
  2
AcDbSpatialFilter
  3
"Acad"
 90
        0
280
           0
281
           0
  0
CLASS
  1
XRECORD
  2
AcDbXrecord
  3
"<Built In>"
 90
        0
280
           0
281
           0
  0
CLASS
  1
SORTENTSTABLE
  2
AcDbSortentsTable
  3
"AutoCAD"
 90
        0
280
           0
281
           0
  0
CLASS
  1
LAYER_INDEX
  2
AcDbLayerIndex
  3
"Acad"
 90
        0
280
           0
281
           0
  0
CLASS
  1
SPATIAL_INDEX
  2
AcDbSpatialIndex
  3
"Acad"
 90
        0
280
           0
281
           0
  0
CLASS
  1
OBJECT_PTR
  2
CAseDLPNTableRecord
  3
"ASE-LPNTableRecord"
 90
        1
280
           0
281
           0
  0
CLASS
  1
LAYOUT
  2
AcDbLayout
  3
"AutoCAD 2000"
 90
        1
280
           0
281
           0
  0
CLASS
  1
PLOTSETTINGS
  2
AcDbPlotSettings
  3
"AutoCAD 2000"
 90
        1
280
           0
281
           0
  0
CLASS
  1
ACDBDICTIONARYWDFLT
  2
AcDbDictionaryWithDefault
  3
"AutoCAD 2000"
 90
        1
280
           0
281
           0
  0
CLASS
  1
ACDBPLACEHOLDER
  2
AcDbPlaceHolder
  3
"AutoCAD 2000"
 90
        1
280
           0
281
           0
  0
ENDSEC
  0
SECTION
  2
TABLES
  0
TABLE
  2
VPORT
  5
7
100
AcDbSymbolTable
 70
           1
  0
VPORT
  5
15
100
AcDbSymbolTableRecord
100
AcDbViewportTableRecord
  2
*ACTIVE
 70
           0
 10
0.0
 20
0.0
 11
1.0
 21
1.0
 12
0.0
 22
0.0
 13
0.0
 23
0.0
 14
1.0
 24
1.0
 15
1.0
 25
1.0
 16
0.0
 26
0.0
 36
1.0
 17
225.457297595272
 27
35.423793559225
 37
0.0
 40
518.167216891445
 41
1.081453634085
 42
50.0
 43
0.0
 44
0.0
 50
0.0
 51
0.0
 71
           0
 72
         100
 73
           1
 74
           1
 75
           0
 76
           1
 77
           0
 78
           0
  0
ENDTAB
  0
TABLE
  2
LTYPE
  5
4
100
AcDbSymbolTable
 70
          17
  0
LTYPE
  5
11
100
AcDbSymbolTableRecord
100
AcDbLinetypeTableRecord
  2
BYBLOCK
 70
          64
  3

 72
          65
 73
           0
 40
0.0
  0
LTYPE
  5
12
100
AcDbSymbolTableRecord
100
AcDbLinetypeTableRecord
  2
BYLAYER
 70
          64
  3

 72
          65
 73
           0
 40
0.0
  0
LTYPE
  5
13
100
AcDbSymbolTableRecord
100
AcDbLinetypeTableRecord
  2
CONTINUOUS
 70
          64
  3
Solid line
 72
          65
 73
           0
 40
0.0
  0
LTYPE
  5
1E
100
AcDbSymbolTableRecord
100
AcDbLinetypeTableRecord
  2
DURCHGEHEND
 70
           0
  3
Durchgehend
 72
          65
 73
           0
 40
0.0
  0
LTYPE
  5
1F
100
AcDbSymbolTableRecord
100
AcDbLinetypeTableRecord
  2
RAND
 70
           0
  3
Rand
 72
          65
 73
           6
 40
1.75
 49
0.5
 74
           0
 49
-0.25
 74
           0
 49
0.5
 74
           0
 49
-0.25
 74
           0
 49
0.0
 74
           0
 49
-0.25
 74
           0
  0
LTYPE
  5
20
100
AcDbSymbolTableRecord
100
AcDbLinetypeTableRecord
  2
MITTE
 70
           0
  3
Mitte
 72
          65
 73
           4
 40
2.0
 49
1.25
 74
           0
 49
-0.25
 74
           0
 49
0.25
 74
           0
 49
-0.25
 74
           0
  0
LTYPE
  5
21
100
AcDbSymbolTableRecord
100
AcDbLinetypeTableRecord
  2
STRICHPUNKT
 70
           0
  3
Strichpunkt
 72
          65
 73
           4
 40
1.0
 49
0.5
 74
           0
 49
-0.25
 74
           0
 49
0.0
 74
           0
 49
-0.25
 74
           0
  0
LTYPE
  5
22
100
AcDbSymbolTableRecord
100
AcDbLinetypeTableRecord
  2
GESTRICHELT
 70
           0
  3
Gestrichelt
 72
          65
 73
           2
 40
0.75
 49
0.5
 74
           0
 49
-0.25
 74
           0
  0
LTYPE
  5
23
100
AcDbSymbolTableRecord
100
AcDbLinetypeTableRecord
  2
TEILEN
 70
           0
  3
Teilen
 72
          65
 73
           6
 40
1.25
 49
0.5
 74
           0
 49
-0.25
 74
           0
 49
0.0
 74
           0
 49
-0.25
 74
           0
 49
0.0
 74
           0
 49
-0.25
 74
           0
  0
LTYPE
  5
24
100
AcDbSymbolTableRecord
100
AcDbLinetypeTableRecord
  2
PUNKT
 70
           0
  3
Punkt
 72
          65
 73
           2
 40
0.25
 49
0.0
 74
           0
 49
-0.25
 74
           0
  0
LTYPE
  5
25
100
AcDbSymbolTableRecord
100
AcDbLinetypeTableRecord
  2
VERDECKT
 70
           0
  3
Verdeckt
 72
          65
 73
           2
 40
0.375
 49
0.25
 74
           0
 49
-0.125
 74
           0
  0
LTYPE
  5
26
100
AcDbSymbolTableRecord
100
AcDbLinetypeTableRecord
  2
$INVISIBLE
 70
           0
  3
$INVISIBLE
 72
          65
 73
           2
 40
200.0
 49
-100.0
 74
           0
 49
-100.0
 74
           0
  0
LTYPE
  5
27
100
AcDbSymbolTableRecord
100
AcDbLinetypeTableRecord
  2
$DDT_AUDIT_GENERATED__27_
 70
           0
  3
$DDT_AUDIT_GENERATED_(27)
 72
          65
 73
           0
 40
0.0
  0
LTYPE
  5
28
100
AcDbSymbolTableRecord
100
AcDbLinetypeTableRecord
  2
$DDT_AUDIT_GENERATED__2D_
 70
           0
  3
$DDT_AUDIT_GENERATED__2D_
 72
          65
 73
           0
 40
0.0
  0
LTYPE
  5
29
100
AcDbSymbolTableRecord
100
AcDbLinetypeTableRecord
  2
$SNAPEXT
 70
           0
  3
$SNAPEXT
 72
          65
 73
           2
 40
0.04
 49
0.02
 74
           0
 49
-0.02
 74
           0
  0
LTYPE
  5
2A
100
AcDbSymbolTableRecord
100
AcDbLinetypeTableRecord
  2
$AUXILIARY
 70
           0
  3
$AUXILIARY
 72
          65
 73
           2
 40
0.1
 49
0.05
 74
           0
 49
-0.05
 74
           0
  0
LTYPE
  5
2B
100
AcDbSymbolTableRecord
100
AcDbLinetypeTableRecord
  2
$CONSTRUCTION
 70
           0
  3
$CONSTRUCTION
 72
          65
 73
           4
 40
0.3
 49
0.2
 74
           0
 49
-0.05
 74
           0
 49
0.0
 74
           0
 49
-0.05
 74
           0
  0
ENDTAB
  0
TABLE
  2
LAYER
  5
2
100
AcDbSymbolTable
 70
           6
  0
LAYER
  5
14
100
AcDbSymbolTableRecord
100
AcDbLayerTableRecord
  2
0
 70
           0
 62
           7
  6
DURCHGEHEND
1001
TCAD
1000
TCW_LAYER_ORDER
1002
{
1071
        0
1002
}
  0
LAYER
  5
2C
100
AcDbSymbolTableRecord
100
AcDbLayerTableRecord
  2
PROFIL
 70
           0
 62
           7
  6
DURCHGEHEND
1001
TCAD
1000
TCW_LAYER_ORDER
1002
{
1071
        0
1002
}
  0
LAYER
  5
2D
100
AcDbSymbolTableRecord
100
AcDbLayerTableRecord
  2
BEBAUUNG
 70
           0
 62
           7
  6
DURCHGEHEND
1001
TCAD
1000
TCW_LAYER_ORDER
1002
{
1071
        0
1002
}
  0
LAYER
  5
2E
100
AcDbSymbolTableRecord
100
AcDbLayerTableRecord
  2
PROFILMASSE
 70
           0
 62
           5
  6
DURCHGEHEND
1001
TCAD
1000
TCW_LAYER_ORDER
1002
{
1071
        0
1002
}
  0
LAYER
  5
2F
100
AcDbSymbolTableRecord
100
AcDbLayerTableRecord
  2
BEBAUUNGSMASSE
 70
           0
 62
           5
  6
DURCHGEHEND
1001
TCAD
1000
TCW_LAYER_ORDER
1002
{
1071
        0
1002
}
  0
LAYER
  5
30
100
AcDbSymbolTableRecord
100
AcDbLayerTableRecord
  2
$CONSTRUCTION
 70
           0
 62
           9
  6
$CONSTRUCTION
1001
TCAD
1000
TCW_LAYER_ORDER
1002
{
1071
        0
1002
}
  0
ENDTAB
  0
TABLE
  2
STYLE
  5
3
100
AcDbSymbolTable
 70
           1
  0
STYLE
  5
17
100
AcDbSymbolTableRecord
100
AcDbTextStyleTableRecord
  2
STANDARD
 70
           0
 40
0.0
 41
1.0
 50
0.0
 71
           0
 42
3.0
  3
TIMES.TTF
  4

1001
ACAD
1000
Times New Roman
1071
      290
  0
ENDTAB
  0
TABLE
  2
VIEW
  5
5
100
AcDbSymbolTable
 70
           1
  0
VIEW
  5
31
100
AcDbSymbolTableRecord
100
AcDbViewTableRecord
  2
ANSICHT_0
 70
           0
 40
210.0
 10
148.5
 20
105.0
 41
297.0
 11
0.0
 21
0.0
 31
1.0
 12
0.0
 22
0.0
 32
0.0
 42
45.247172312671
 43
0.0
 44
0.0
 50
0.0
 71
           0
  0
ENDTAB
  0
TABLE
  2
UCS
  5
6
100
AcDbSymbolTable
 70
           1
  0
UCS
  5
32
100
AcDbSymbolTableRecord
100
AcDbUCSTableRecord
  2
PROFIL
 70
           0
 10
0.0
 20
0.0
 30
0.0
 11
1.0
 21
0.0
 31
0.0
 12
0.0
 22
1.0
 32
0.0
  0
ENDTAB
  0
TABLE
  2
APPID
  5
8
100
AcDbSymbolTable
 70
           2
  0
APPID
  5
16
100
AcDbSymbolTableRecord
100
AcDbRegAppTableRecord
  2
ACAD
 70
           0
  0
APPID
  5
1D
100
AcDbSymbolTableRecord
100
AcDbRegAppTableRecord
  2
TCAD
 70
           0
  0
ENDTAB
  0
TABLE
  2
DIMSTYLE
  5
9
100
AcDbSymbolTable
 70
           1
  0
DIMSTYLE
105
18
100
AcDbSymbolTableRecord
100
AcDbDimStyleTableRecord
  2
STANDARD
 70
           0
  3
<>mm
  4

  5

  6

  7

 40
1.0
 41
3.0
 42
1.0
 43
7.5
 44
2.0
 45
0.01
 46
0.0
 47
0.0
 48
0.0
 71
           0
 72
           0
 73
           1
 74
           0
 75
           0
 76
           0
 77
           1
 78
           8
140
6.0
141
0.09
142
0.0
143
1.0
144
1.0
145
0.0
146
1.0
147
2.0
170
           0
171
           2
172
           1
173
           0
174
           0
175
           0
176
           7
177
           7
178
           7
270
           2
271
           2
272
           8
273
           2
274
           2
275
           0
280
           0
281
           0
282
           0
283
           1
284
           0
285
           0
286
           0
287
           0
288
           0
340
17
  0
ENDTAB
  0
TABLE
  2
BLOCK_RECORD
  5
1
100
AcDbSymbolTable
 70
          12
  0
BLOCK_RECORD
  5
A
100
AcDbSymbolTableRecord
100
AcDbBlockTableRecord
  2
*MODEL_SPACE
  0
BLOCK_RECORD
  5
B
100
AcDbSymbolTableRecord
100
AcDbBlockTableRecord
  2
*PAPER_SPACE
  0
BLOCK_RECORD
  5
40
100
AcDbSymbolTableRecord
100
AcDbBlockTableRecord
  2
*D0
  0
BLOCK_RECORD
  5
4D
100
AcDbSymbolTableRecord
100
AcDbBlockTableRecord
  2
*D1
  0
BLOCK_RECORD
  5
5A
100
AcDbSymbolTableRecord
100
AcDbBlockTableRecord
  2
*D2
  0
BLOCK_RECORD
  5
67
100
AcDbSymbolTableRecord
100
AcDbBlockTableRecord
  2
*D3
  0
BLOCK_RECORD
  5
74
100
AcDbSymbolTableRecord
100
AcDbBlockTableRecord
  2
*D4
  0
BLOCK_RECORD
  5
81
100
AcDbSymbolTableRecord
100
AcDbBlockTableRecord
  2
*D5
  0
BLOCK_RECORD
  5
8E
100
AcDbSymbolTableRecord
100
AcDbBlockTableRecord
  2
*D6
  0
BLOCK_RECORD
  5
9B
100
AcDbSymbolTableRecord
100
AcDbBlockTableRecord
  2
*D7
  0
BLOCK_RECORD
  5
A8
100
AcDbSymbolTableRecord
100
AcDbBlockTableRecord
  2
*D8
  0
BLOCK_RECORD
  5
B6
100
AcDbSymbolTableRecord
100
AcDbBlockTableRecord
  2
*D9
  0
BLOCK_RECORD
  5
C3
100
AcDbSymbolTableRecord
100
AcDbBlockTableRecord
  2
*D10
  0
BLOCK_RECORD
  5
D4
100
AcDbSymbolTableRecord
100
AcDbBlockTableRecord
  2
*D11
  0
ENDTAB
  0
ENDSEC
  0
SECTION
  2
BLOCKS
  0
BLOCK
  5
D
100
AcDbEntity
  8
0
100
AcDbBlockBegin
  2
*MODEL_SPACE
 70
           0
 10
0.0
 20
0.0
 30
0.0
  3
*MODEL_SPACE
  1

  0
ENDBLK
  5
E
100
AcDbEntity
  8
0
100
AcDbBlockEnd
  0
BLOCK
  5
F
100
AcDbEntity
 67
           1
  8
0
100
AcDbBlockBegin
  2
*PAPER_SPACE
 70
           0
 10
0.0
 20
0.0
 30
0.0
  3
*PAPER_SPACE
  1

  0
ENDBLK
  5
10
100
AcDbEntity
 67
           1
  8
0
100
AcDbBlockEnd
  0
BLOCK
  5
41
100
AcDbEntity
  8
0
100
AcDbBlockBegin
  2
*D0
 70
           1
 10
0.0
 20
0.0
 30
0.0
  3
*D0
  1

  0
LINE
  5
42
100
AcDbEntity
  8
PROFILMASSE
  6
DURCHGEHEND
 62
           7
100
AcDbLine
 10
0.0
 20
-1.995694324338
 30
0.0
 11
-0.0
 21
-10.013830542698
 31
0.0
1001
ACAD
1000
TCW40_DEV_WIDTH
1002
{
1040
-3.0
1002
}
1001
TCAD
1000
TCW_ATTRIBUTE
1002
{
1000
<60>
1002
}
  0
LINE
  5
43
100
AcDbEntity
  8
PROFILMASSE
  6
DURCHGEHEND
 62
           7
100
AcDbLine
 10
60.0
 20
-1.995694324338
 30
0.0
 11
60.0
 21
-10.013830542698
 31
0.0
1001
ACAD
1000
TCW40_DEV_WIDTH
1002
{
1040
-3.0
1002
}
1001
TCAD
1000
TCW_ATTRIBUTE
1002
{
1000
<60>
1002
}
  0
LWPOLYLINE
  5
44
100
AcDbEntity
  8
PROFILMASSE
  6
DURCHGEHEND
 62
           7
100
AcDbPolyline
 90
        4
 70
           0
 10
3.0
 20
-8.013830542698
 10
3.0
 20
-8.013830542698
 10
3.0
 20
-8.013830542698
 10
15.332451499118
 20
-8.013830542698
1001
ACAD
1000
TCW40_DEV_WIDTH
1002
{
1040
-3.0
1002
}
1001
TCAD
1000
TCW_ATTRIBUTE
1002
{
1000
<60>
1002
}
  0
LWPOLYLINE
  5
45
100
AcDbEntity
  8
PROFILMASSE
  6
DURCHGEHEND
 62
           7
100
AcDbPolyline
 90
        4
 70
           0
 10
57.0
 20
-8.013830542698
 10
57.0
 20
-8.013830542698
 10
57.0
 20
-8.013830542698
 10
44.667548500882
 20
-8.013830542698
1001
ACAD
1000
TCW40_DEV_WIDTH
1002
{
1040
-3.0
1002
}
1001
TCAD
1000
TCW_ATTRIBUTE
1002
{
1000
<60>
1002
}
  0
LWPOLYLINE
  5
47
102
{ACAD_REACTORS
330
46
102
}
100
AcDbEntity
  8
PROFILMASSE
  6
DURCHGEHEND
 62
           7
100
AcDbPolyline
 90
        4
 70
           0
 10
0.0
 20
-8.013830542698
 10
3.0
 20
-8.403830542698
 10
3.0
 20
-7.623830542698
 10
0.0
 20
-8.013830542698
1001
ACAD
1000
TCW40_DEV_WIDTH
1002
{
1040
-3.0
1002
}
1001
TCAD
1000
TCW_ATTRIBUTE
1002
{
1000
<60>
1002
}
  0
HATCH
  5
46
100
AcDbEntity
  8
PROFILMASSE
  6
DURCHGEHEND
 62
           7
100
AcDbHatch
 10
0.0
 20
0.0
 30
0.0
210
0.0
220
0.0
230
1.0
  2
SOLID
 70
           1
 71
           1
 91
        1
 92
        3
 72
           0
 73
           1
 93
        3
 10
0.0
 20
-8.0138305426975371
 10
3.0
 20
-8.4038305426975377
 10
3.0
 20
-7.6238305426975375
 97
        1
330
47
 75
           0
 76
           0
 98
        0
1001
TCAD
1000
TCW_ATTRIBUTE
1002
{
1000
<60>
1002
}
  0
LWPOLYLINE
  5
49
102
{ACAD_REACTORS
330
48
102
}
100
AcDbEntity
  8
PROFILMASSE
  6
DURCHGEHEND
 62
           7
100
AcDbPolyline
 90
        4
 70
           0
 10
60.0
 20
-8.013830542698
 10
57.0
 20
-7.623830542698
 10
57.0
 20
-8.403830542698
 10
60.0
 20
-8.013830542698
1001
ACAD
1000
TCW40_DEV_WIDTH
1002
{
1040
-3.0
1002
}
1001
TCAD
1000
TCW_ATTRIBUTE
1002
{
1000
<60>
1002
}
  0
HATCH
  5
48
100
AcDbEntity
  8
PROFILMASSE
  6
DURCHGEHEND
 62
           7
100
AcDbHatch
 10
0.0
 20
0.0
 30
0.0
210
0.0
220
0.0
230
1.0
  2
SOLID
 70
           1
 71
           1
 91
        1
 92
        3
 72
           0
 73
           1
 93
        3
 10
60.0
 20
-8.0138305426975425
 10
57.0
 20
-7.6238305426975428
 10
57.0
 20
-8.403830542697543
 97
        1
330
49
 75
           0
 76
           0
 98
        0
1001
TCAD
1000
TCW_ATTRIBUTE
1002
{
1000
<60>
1002
}
  0
MTEXT
  5
4A
100
AcDbEntity
  8
PROFILMASSE
  6
DURCHGEHEND
 62
           7
100
AcDbMText
 10
30.0
 20
-8.013830542698
 30
0.0
 40
6.0
 41
0.0
 71
           5
 72
           1
  1
\A1;60 mm
1001
TCAD
1000
TCW_REFPOINT
1002
{
1010
30.0
1020
-8.013830542698
1030
0.0
1002
}
1000
TCW_ATTRIBUTE
1002
{
1000
<60>
1002
}
  0
ENDBLK
  5
4B
100
AcDbEntity
  8
0
100
AcDbBlockEnd
  0
BLOCK
  5
4E
100
AcDbEntity
  8
0
100
AcDbBlockBegin
  2
*D1
 70
           1
 10
0.0
 20
0.0
 30
0.0
  3
*D1
  1

  0
LINE
  5
4F
100
AcDbEntity
  8
PROFILMASSE
  6
DURCHGEHEND
 62
           7
100
AcDbLine
 10
0.0
 20
-1.0
 30
0.0
 11
-0.0
 21
-23.217306587222
 31
0.0
1001
ACAD
1000
TCW40_DEV_WIDTH
1002
{
1040
-3.0
1002
}
1001
TCAD
1000
TCW_ATTRIBUTE
1002
{
1000
<150>
1002
}
  0
LINE
  5
50
100
AcDbEntity
  8
PROFILMASSE
  6
DURCHGEHEND
 62
           7
100
AcDbLine
 10
150.0
 20
-1.0
 30
0.0
 11
150.0
 21
-23.217306587222
 31
0.0
1001
ACAD
1000
TCW40_DEV_WIDTH
1002
{
1040
-3.0
1002
}
1001
TCAD
1000
TCW_ATTRIBUTE
1002
{
1000
<150>
1002
}
  0
LWPOLYLINE
  5
51
100
AcDbEntity
  8
PROFILMASSE
  6
DURCHGEHEND
 62
           7
100
AcDbPolyline
 90
        4
 70
           0
 10
3.0
 20
-21.217306587222
 10
3.0
 20
-21.217306587222
 10
3.0
 20
-21.217306587222
 10
58.074955908289
 20
-21.217306587222
1001
ACAD
1000
TCW40_DEV_WIDTH
1002
{
1040
-3.0
1002
}
1001
TCAD
1000
TCW_ATTRIBUTE
1002
{
1000
<150>
1002
}
  0
LWPOLYLINE
  5
52
100
AcDbEntity
  8
PROFILMASSE
  6
DURCHGEHEND
 62
           7
100
AcDbPolyline
 90
        4
 70
           0
 10
147.0
 20
-21.217306587222
 10
147.0
 20
-21.217306587222
 10
147.0
 20
-21.217306587222
 10
91.925044091711
 20
-21.217306587222
1001
ACAD
1000
TCW40_DEV_WIDTH
1002
{
1040
-3.0
1002
}
1001
TCAD
1000
TCW_ATTRIBUTE
1002
{
1000
<150>
1002
}
  0
LWPOLYLINE
  5
54
102
{ACAD_REACTORS
330
53
102
}
100
AcDbEntity
  8
PROFILMASSE
  6
DURCHGEHEND
 62
           7
100
AcDbPolyline
 90
        4
 70
           0
 10
0.0
 20
-21.217306587222
 10
3.0
 20
-21.607306587222
 10
3.0
 20
-20.827306587222
 10
0.0
 20
-21.217306587222
1001
ACAD
1000
TCW40_DEV_WIDTH
1002
{
1040
-3.0
1002
}
1001
TCAD
1000
TCW_ATTRIBUTE
1002
{
1000
<150>
1002
}
  0
HATCH
  5
53
100
AcDbEntity
  8
PROFILMASSE
  6
DURCHGEHEND
 62
           7
100
AcDbHatch
 10
0.0
 20
0.0
 30
0.0
210
0.0
220
0.0
230
1.0
  2
SOLID
 70
           1
 71
           1
 91
        1
 92
        3
 72
           0
 73
           1
 93
        3
 10
0.0
 20
-21.217306587221771
 10
3.0
 20
-21.607306587221771
 10
3.0
 20
-20.82730658722177
 97
        1
330
54
 75
           0
 76
           0
 98
        0
1001
TCAD
1000
TCW_ATTRIBUTE
1002
{
1000
<150>
1002
}
  0
LWPOLYLINE
  5
56
102
{ACAD_REACTORS
330
55
102
}
100
AcDbEntity
  8
PROFILMASSE
  6
DURCHGEHEND
 62
           7
100
AcDbPolyline
 90
        4
 70
           0
 10
150.0
 20
-21.217306587222
 10
147.0
 20
-20.827306587222
 10
147.0
 20
-21.607306587222
 10
150.0
 20
-21.217306587222
1001
ACAD
1000
TCW40_DEV_WIDTH
1002
{
1040
-3.0
1002
}
1001
TCAD
1000
TCW_ATTRIBUTE
1002
{
1000
<150>
1002
}
  0
HATCH
  5
55
100
AcDbEntity
  8
PROFILMASSE
  6
DURCHGEHEND
 62
           7
100
AcDbHatch
 10
0.0
 20
0.0
 30
0.0
210
0.0
220
0.0
230
1.0
  2
SOLID
 70
           1
 71
           1
 91
        1
 92
        3
 72
           0
 73
           1
 93
        3
 10
150.0
 20
-21.217306587221778
 10
147.0
 20
-20.827306587221777
 10
147.0
 20
-21.607306587221778
 97
        1
330
56
 75
           0
 76
           0
 98
        0
1001
TCAD
1000
TCW_ATTRIBUTE
1002
{
1000
<150>
1002
}
  0
MTEXT
  5
57
100
AcDbEntity
  8
PROFILMASSE
  6
DURCHGEHEND
 62
           7
100
AcDbMText
 10
75.0
 20
-21.217306587222
 30
0.0
 40
6.0
 41
0.0
 71
           5
 72
           1
  1
\A1;150 mm
1001
TCAD
1000
TCW_REFPOINT
1002
{
1010
75.0
1020
-21.217306587222
1030
0.0
1002
}
1000
TCW_ATTRIBUTE
1002
{
1000
<150>
1002
}
  0
ENDBLK
  5
58
100
AcDbEntity
  8
0
100
AcDbBlockEnd
  0
BLOCK
  5
5B
100
AcDbEntity
  8
0
100
AcDbBlockBegin
  2
*D2
 70
           1
 10
0.0
 20
0.0
 30
0.0
  3
*D2
  1

  0
LINE
  5
5C
100
AcDbEntity
  8
PROFILMASSE
  6
DURCHGEHEND
 62
           7
100
AcDbLine
 10
0.0
 20
-1.0
 30
0.0
 11
-0.0
 21
-34.536521539147
 31
0.0
1001
ACAD
1000
TCW40_DEV_WIDTH
1002
{
1040
-3.0
1002
}
1001
TCAD
1000
TCW_ATTRIBUTE
1002
{
1000
<240>
1002
}
  0
LINE
  5
5D
100
AcDbEntity
  8
PROFILMASSE
  6
DURCHGEHEND
 62
           7
100
AcDbLine
 10
240.0
 20
-1.0
 30
0.0
 11
240.0
 21
-34.536521539147
 31
0.0
1001
ACAD
1000
TCW40_DEV_WIDTH
1002
{
1040
-3.0
1002
}
1001
TCAD
1000
TCW_ATTRIBUTE
1002
{
1000
<240>
1002
}
  0
LWPOLYLINE
  5
5E
100
AcDbEntity
  8
PROFILMASSE
  6
DURCHGEHEND
 62
           7
100
AcDbPolyline
 90
        4
 70
           0
 10
3.0
 20
-32.536521539147
 10
3.0
 20
-32.536521539147
 10
3.0
 20
-32.536521539147
 10
103.074955908289
 20
-32.536521539147
1001
ACAD
1000
TCW40_DEV_WIDTH
1002
{
1040
-3.0
1002
}
1001
TCAD
1000
TCW_ATTRIBUTE
1002
{
1000
<240>
1002
}
  0
LWPOLYLINE
  5
5F
100
AcDbEntity
  8
PROFILMASSE
  6
DURCHGEHEND
 62
           7
100
AcDbPolyline
 90
        4
 70
           0
 10
237.0
 20
-32.536521539147
 10
237.0
 20
-32.536521539147
 10
237.0
 20
-32.536521539147
 10
136.925044091711
 20
-32.536521539147
1001
ACAD
1000
TCW40_DEV_WIDTH
1002
{
1040
-3.0
1002
}
1001
TCAD
1000
TCW_ATTRIBUTE
1002
{
1000
<240>
1002
}
  0
LWPOLYLINE
  5
61
102
{ACAD_REACTORS
330
60
102
}
100
AcDbEntity
  8
PROFILMASSE
  6
DURCHGEHEND
 62
           7
100
AcDbPolyline
 90
        4
 70
           0
 10
0.0
 20
-32.536521539147
 10
3.0
 20
-32.926521539147
 10
3.0
 20
-32.146521539147
 10
0.0
 20
-32.536521539147
1001
ACAD
1000
TCW40_DEV_WIDTH
1002
{
1040
-3.0
1002
}
1001
TCAD
1000
TCW_ATTRIBUTE
1002
{
1000
<240>
1002
}
  0
HATCH
  5
60
100
AcDbEntity
  8
PROFILMASSE
  6
DURCHGEHEND
 62
           7
100
AcDbHatch
 10
0.0
 20
0.0
 30
0.0
210
0.0
220
0.0
230
1.0
  2
SOLID
 70
           1
 71
           1
 91
        1
 92
        3
 72
           0
 73
           1
 93
        3
 10
0.0
 20
-32.536521539146975
 10
3.0
 20
-32.926521539146975
 10
3.0
 20
-32.146521539146974
 97
        1
330
61
 75
           0
 76
           0
 98
        0
1001
TCAD
1000
TCW_ATTRIBUTE
1002
{
1000
<240>
1002
}
  0
LWPOLYLINE
  5
63
102
{ACAD_REACTORS
330
62
102
}
100
AcDbEntity
  8
PROFILMASSE
  6
DURCHGEHEND
 62
           7
100
AcDbPolyline
 90
        4
 70
           0
 10
240.0
 20
-32.536521539147
 10
237.0
 20
-32.146521539147
 10
237.0
 20
-32.926521539147
 10
240.0
 20
-32.536521539147
1001
ACAD
1000
TCW40_DEV_WIDTH
1002
{
1040
-3.0
1002
}
1001
TCAD
1000
TCW_ATTRIBUTE
1002
{
1000
<240>
1002
}
  0
HATCH
  5
62
100
AcDbEntity
  8
PROFILMASSE
  6
DURCHGEHEND
 62
           7
100
AcDbHatch
 10
0.0
 20
0.0
 30
0.0
210
0.0
220
0.0
230
1.0
  2
SOLID
 70
           1
 71
           1
 91
        1
 92
        3
 72
           0
 73
           1
 93
        3
 10
240.0
 20
-32.536521539146982
 10
237.0
 20
-32.146521539146981
 10
237.0
 20
-32.926521539146982
 97
        1
330
63
 75
           0
 76
           0
 98
        0
1001
TCAD
1000
TCW_ATTRIBUTE
1002
{
1000
<240>
1002
}
  0
MTEXT
  5
64
100
AcDbEntity
  8
PROFILMASSE
  6
DURCHGEHEND
 62
           7
100
AcDbMText
 10
120.0
 20
-32.536521539147
 30
0.0
 40
6.0
 41
0.0
 71
           5
 72
           1
  1
\A1;240 mm
1001
TCAD
1000
TCW_REFPOINT
1002
{
1010
120.0
1020
-32.536521539147
1030
0.0
1002
}
1000
TCW_ATTRIBUTE
1002
{
1000
<240>
1002
}
  0
ENDBLK
  5
65
100
AcDbEntity
  8
0
100
AcDbBlockEnd
  0
BLOCK
  5
68
100
AcDbEntity
  8
0
100
AcDbBlockBegin
  2
*D3
 70
           1
 10
0.0
 20
0.0
 30
0.0
  3
*D3
  1

  0
LINE
  5
69
100
AcDbEntity
  8
PROFILMASSE
  6
DURCHGEHEND
 62
           7
100
AcDbLine
 10
0.0
 20
-1.0
 30
0.0
 11
-0.0
 21
-45.287963395423
 31
0.0
1001
ACAD
1000
TCW40_DEV_WIDTH
1002
{
1040
-3.0
1002
}
1001
TCAD
1000
TCW_ATTRIBUTE
1002
{
1000
<440>
1002
}
  0
LINE
  5
6A
100
AcDbEntity
  8
PROFILMASSE
  6
DURCHGEHEND
 62
           7
100
AcDbLine
 10
440.0
 20
-1.0
 30
0.0
 11
440.0
 21
-45.287963395423
 31
0.0
1001
ACAD
1000
TCW40_DEV_WIDTH
1002
{
1040
-3.0
1002
}
1001
TCAD
1000
TCW_ATTRIBUTE
1002
{
1000
<440>
1002
}
  0
LWPOLYLINE
  5
6B
100
AcDbEntity
  8
PROFILMASSE
  6
DURCHGEHEND
 62
           7
100
AcDbPolyline
 90
        4
 70
           0
 10
3.0
 20
-43.287963395423
 10
3.0
 20
-43.287963395423
 10
3.0
 20
-43.287963395423
 10
203.074955908289
 20
-43.287963395423
1001
ACAD
1000
TCW40_DEV_WIDTH
1002
{
1040
-3.0
1002
}
1001
TCAD
1000
TCW_ATTRIBUTE
1002
{
1000
<440>
1002
}
  0
LWPOLYLINE
  5
6C
100
AcDbEntity
  8
PROFILMASSE
  6
DURCHGEHEND
 62
           7
100
AcDbPolyline
 90
        4
 70
           0
 10
437.0
 20
-43.287963395423
 10
437.0
 20
-43.287963395423
 10
437.0
 20
-43.287963395423
 10
236.925044091711
 20
-43.287963395423
1001
ACAD
1000
TCW40_DEV_WIDTH
1002
{
1040
-3.0
1002
}
1001
TCAD
1000
TCW_ATTRIBUTE
1002
{
1000
<440>
1002
}
  0
LWPOLYLINE
  5
6E
102
{ACAD_REACTORS
330
6D
102
}
100
AcDbEntity
  8
PROFILMASSE
  6
DURCHGEHEND
 62
           7
100
AcDbPolyline
 90
        4
 70
           0
 10
0.0
 20
-43.287963395423
 10
3.0
 20
-43.677963395423
 10
3.0
 20
-42.897963395423
 10
0.0
 20
-43.287963395423
1001
ACAD
1000
TCW40_DEV_WIDTH
1002
{
1040
-3.0
1002
}
1001
TCAD
1000
TCW_ATTRIBUTE
1002
{
1000
<440>
1002
}
  0
HATCH
  5
6D
100
AcDbEntity
  8
PROFILMASSE
  6
DURCHGEHEND
 62
           7
100
AcDbHatch
 10
0.0
 20
0.0
 30
0.0
210
0.0
220
0.0
230
1.0
  2
SOLID
 70
           1
 71
           1
 91
        1
 92
        3
 72
           0
 73
           1
 93
        3
 10
0.0
 20
-43.287963395422949
 10
3.0
 20
-43.67796339542295
 10
3.0
 20
-42.897963395422948
 97
        1
330
6E
 75
           0
 76
           0
 98
        0
1001
TCAD
1000
TCW_ATTRIBUTE
1002
{
1000
<440>
1002
}
  0
LWPOLYLINE
  5
70
102
{ACAD_REACTORS
330
6F
102
}
100
AcDbEntity
  8
PROFILMASSE
  6
DURCHGEHEND
 62
           7
100
AcDbPolyline
 90
        4
 70
           0
 10
440.0
 20
-43.287963395423
 10
437.0
 20
-42.897963395423
 10
437.0
 20
-43.677963395423
 10
440.0
 20
-43.287963395423
1001
ACAD
1000
TCW40_DEV_WIDTH
1002
{
1040
-3.0
1002
}
1001
TCAD
1000
TCW_ATTRIBUTE
1002
{
1000
<440>
1002
}
  0
HATCH
  5
6F
100
AcDbEntity
  8
PROFILMASSE
  6
DURCHGEHEND
 62
           7
100
AcDbHatch
 10
0.0
 20
0.0
 30
0.0
210
0.0
220
0.0
230
1.0
  2
SOLID
 70
           1
 71
           1
 91
        1
 92
        3
 72
           0
 73
           1
 93
        3
 10
440.0
 20
-43.287963395422956
 10
437.0
 20
-42.897963395422956
 10
437.0
 20
-43.677963395422957
 97
        1
330
70
 75
           0
 76
           0
 98
        0
1001
TCAD
1000
TCW_ATTRIBUTE
1002
{
1000
<440>
1002
}
  0
MTEXT
  5
71
100
AcDbEntity
  8
PROFILMASSE
  6
DURCHGEHEND
 62
           7
100
AcDbMText
 10
220.0
 20
-43.287963395423
 30
0.0
 40
6.0
 41
0.0
 71
           5
 72
           1
  1
\A1;440 mm
1001
TCAD
1000
TCW_REFPOINT
1002
{
1010
220.0
1020
-43.287963395423
1030
0.0
1002
}
1000
TCW_ATTRIBUTE
1002
{
1000
<440>
1002
}
  0
ENDBLK
  5
72
100
AcDbEntity
  8
0
100
AcDbBlockEnd
  0
BLOCK
  5
75
100
AcDbEntity
  8
0
100
AcDbBlockBegin
  2
*D4
 70
           1
 10
0.0
 20
0.0
 30
0.0
  3
*D4
  1

  0
LINE
  5
76
100
AcDbEntity
  8
PROFILMASSE
  6
DURCHGEHEND
 62
           7
100
AcDbLine
 10
0.0
 20
-1.0
 30
0.0
 11
-0.0
 21
-55.216414381935
 31
0.0
1001
ACAD
1000
TCW40_DEV_WIDTH
1002
{
1040
-3.0
1002
}
1001
TCAD
1000
TCW_ATTRIBUTE
1002
{
1000
<500>
1002
}
  0
LINE
  5
77
100
AcDbEntity
  8
PROFILMASSE
  6
DURCHGEHEND
 62
           7
100
AcDbLine
 10
500.0
 20
-1.0
 30
0.0
 11
500.0
 21
-55.216414381936
 31
0.0
1001
ACAD
1000
TCW40_DEV_WIDTH
1002
{
1040
-3.0
1002
}
1001
TCAD
1000
TCW_ATTRIBUTE
1002
{
1000
<500>
1002
}
  0
LWPOLYLINE
  5
78
100
AcDbEntity
  8
PROFILMASSE
  6
DURCHGEHEND
 62
           7
100
AcDbPolyline
 90
        4
 70
           0
 10
3.0
 20
-53.216414381935
 10
3.0
 20
-53.216414381935
 10
3.0
 20
-53.216414381935
 10
233.074955908289
 20
-53.216414381935
1001
ACAD
1000
TCW40_DEV_WIDTH
1002
{
1040
-3.0
1002
}
1001
TCAD
1000
TCW_ATTRIBUTE
1002
{
1000
<500>
1002
}
  0
LWPOLYLINE
  5
79
100
AcDbEntity
  8
PROFILMASSE
  6
DURCHGEHEND
 62
           7
100
AcDbPolyline
 90
        4
 70
           0
 10
497.0
 20
-53.216414381936
 10
497.0
 20
-53.216414381936
 10
497.0
 20
-53.216414381936
 10
266.925044091711
 20
-53.216414381936
1001
ACAD
1000
TCW40_DEV_WIDTH
1002
{
1040
-3.0
1002
}
1001
TCAD
1000
TCW_ATTRIBUTE
1002
{
1000
<500>
1002
}
  0
LWPOLYLINE
  5
7B
102
{ACAD_REACTORS
330
7A
102
}
100
AcDbEntity
  8
PROFILMASSE
  6
DURCHGEHEND
 62
           7
100
AcDbPolyline
 90
        4
 70
           0
 10
0.0
 20
-53.216414381935
 10
3.0
 20
-53.606414381935
 10
3.0
 20
-52.826414381935
 10
0.0
 20
-53.216414381935
1001
ACAD
1000
TCW40_DEV_WIDTH
1002
{
1040
-3.0
1002
}
1001
TCAD
1000
TCW_ATTRIBUTE
1002
{
1000
<500>
1002
}
  0
HATCH
  5
7A
100
AcDbEntity
  8
PROFILMASSE
  6
DURCHGEHEND
 62
           7
100
AcDbHatch
 10
0.0
 20
0.0
 30
0.0
210
0.0
220
0.0
230
1.0
  2
SOLID
 70
           1
 71
           1
 91
        1
 92
        3
 72
           0
 73
           1
 93
        3
 10
0.0
 20
-53.216414381935493
 10
3.0
 20
-53.606414381935494
 10
3.0
 20
-52.826414381935493
 97
        1
330
7B
 75
           0
 76
           0
 98
        0
1001
TCAD
1000
TCW_ATTRIBUTE
1002
{
1000
<500>
1002
}
  0
LWPOLYLINE
  5
7D
102
{ACAD_REACTORS
330
7C
102
}
100
AcDbEntity
  8
PROFILMASSE
  6
DURCHGEHEND
 62
           7
100
AcDbPolyline
 90
        4
 70
           0
 10
500.0
 20
-53.216414381936
 10
497.0
 20
-52.826414381936
 10
497.0
 20
-53.606414381936
 10
500.0
 20
-53.216414381936
1001
ACAD
1000
TCW40_DEV_WIDTH
1002
{
1040
-3.0
1002
}
1001
TCAD
1000
TCW_ATTRIBUTE
1002
{
1000
<500>
1002
}
  0
HATCH
  5
7C
100
AcDbEntity
  8
PROFILMASSE
  6
DURCHGEHEND
 62
           7
100
AcDbHatch
 10
0.0
 20
0.0
 30
0.0
210
0.0
220
0.0
230
1.0
  2
SOLID
 70
           1
 71
           1
 91
        1
 92
        3
 72
           0
 73
           1
 93
        3
 10
500.0
 20
-53.2164143819355
 10
497.0
 20
-52.8264143819355
 10
497.0
 20
-53.606414381935501
 97
        1
330
7D
 75
           0
 76
           0
 98
        0
1001
TCAD
1000
TCW_ATTRIBUTE
1002
{
1000
<500>
1002
}
  0
MTEXT
  5
7E
100
AcDbEntity
  8
PROFILMASSE
  6
DURCHGEHEND
 62
           7
100
AcDbMText
 10
250.0
 20
-53.216414381936
 30
0.0
 40
6.0
 41
0.0
 71
           5
 72
           1
  1
\A1;500 mm
1001
TCAD
1000
TCW_REFPOINT
1002
{
1010
250.0
1020
-53.216414381936
1030
0.0
1002
}
1000
TCW_ATTRIBUTE
1002
{
1000
<500>
1002
}
  0
ENDBLK
  5
7F
100
AcDbEntity
  8
0
100
AcDbBlockEnd
  0
BLOCK
  5
82
100
AcDbEntity
  8
0
100
AcDbBlockBegin
  2
*D5
 70
           1
 10
0.0
 20
0.0
 30
0.0
  3
*D5
  1

  0
LINE
  5
83
100
AcDbEntity
  8
PROFILMASSE
  6
DURCHGEHEND
 62
           7
100
AcDbLine
 10
-1.0
 20
100.0
 30
0.0
 11
-11.630665984875
 21
100.0
 31
0.0
1001
ACAD
1000
TCW40_DEV_WIDTH
1002
{
1040
-3.0
1002
}
1001
TCAD
1000
TCW_ATTRIBUTE
1002
{
1000
<50>
1002
}
  0
LINE
  5
84
100
AcDbEntity
  8
PROFILMASSE
  6
DURCHGEHEND
 62
           7
100
AcDbLine
 10
-1.0
 20
50.0
 30
0.0
 11
-11.630665984875
 21
50.0
 31
0.0
1001
ACAD
1000
TCW40_DEV_WIDTH
1002
{
1040
-3.0
1002
}
1001
TCAD
1000
TCW_ATTRIBUTE
1002
{
1000
<50>
1002
}
  0
LWPOLYLINE
  5
85
100
AcDbEntity
  8
PROFILMASSE
  6
DURCHGEHEND
 62
           7
100
AcDbPolyline
 90
        4
 70
           0
 10
-9.630665984875
 20
97.0
 10
-9.630665984875
 20
97.0
 10
-9.630665984875
 20
97.0
 10
-9.630665984875
 20
82.0
1001
ACAD
1000
TCW40_DEV_WIDTH
1002
{
1040
-3.0
1002
}
1001
TCAD
1000
TCW_ATTRIBUTE
1002
{
1000
<50>
1002
}
  0
LWPOLYLINE
  5
86
100
AcDbEntity
  8
PROFILMASSE
  6
DURCHGEHEND
 62
           7
100
AcDbPolyline
 90
        4
 70
           0
 10
-9.630665984875
 20
53.0
 10
-9.630665984875
 20
53.0
 10
-9.630665984875
 20
53.0
 10
-9.630665984875
 20
68.0
1001
ACAD
1000
TCW40_DEV_WIDTH
1002
{
1040
-3.0
1002
}
1001
TCAD
1000
TCW_ATTRIBUTE
1002
{
1000
<50>
1002
}
  0
LWPOLYLINE
  5
88
102
{ACAD_REACTORS
330
87
102
}
100
AcDbEntity
  8
PROFILMASSE
  6
DURCHGEHEND
 62
           7
100
AcDbPolyline
 90
        4
 70
           0
 10
-9.630665984875
 20
100.0
 10
-10.020665984875
 20
97.0
 10
-9.240665984875
 20
97.0
 10
-9.630665984875
 20
100.0
1001
ACAD
1000
TCW40_DEV_WIDTH
1002
{
1040
-3.0
1002
}
1001
TCAD
1000
TCW_ATTRIBUTE
1002
{
1000
<50>
1002
}
  0
HATCH
  5
87
100
AcDbEntity
  8
PROFILMASSE
  6
DURCHGEHEND
 62
           7
100
AcDbHatch
 10
0.0
 20
0.0
 30
0.0
210
0.0
220
0.0
230
1.0
  2
SOLID
 70
           1
 71
           1
 91
        1
 92
        3
 72
           0
 73
           1
 93
        3
 10
-9.6306659848750673
 20
99.999999999999986
 10
-10.020665984875068
 20
96.999999999999986
 10
-9.2406659848750667
 20
96.999999999999986
 97
        1
330
88
 75
           0
 76
           0
 98
        0
1001
TCAD
1000
TCW_ATTRIBUTE
1002
{
1000
<50>
1002
}
  0
LWPOLYLINE
  5
8A
102
{ACAD_REACTORS
330
89
102
}
100
AcDbEntity
  8
PROFILMASSE
  6
DURCHGEHEND
 62
           7
100
AcDbPolyline
 90
        4
 70
           0
 10
-9.630665984875
 20
50.0
 10
-9.240665984875
 20
53.0
 10
-10.020665984875
 20
53.0
 10
-9.630665984875
 20
50.0
1001
ACAD
1000
TCW40_DEV_WIDTH
1002
{
1040
-3.0
1002
}
1001
TCAD
1000
TCW_ATTRIBUTE
1002
{
1000
<50>
1002
}
  0
HATCH
  5
89
100
AcDbEntity
  8
PROFILMASSE
  6
DURCHGEHEND
 62
           7
100
AcDbHatch
 10
0.0
 20
0.0
 30
0.0
210
0.0
220
0.0
230
1.0
  2
SOLID
 70
           1
 71
           1
 91
        1
 92
        3
 72
           0
 73
           1
 93
        3
 10
-9.6306659848750638
 20
50.0
 10
-9.2406659848750632
 20
53.0
 10
-10.020665984875064
 20
53.0
 97
        1
330
8A
 75
           0
 76
           0
 98
        0
1001
TCAD
1000
TCW_ATTRIBUTE
1002
{
1000
<50>
1002
}
  0
MTEXT
  5
8B
100
AcDbEntity
  8
PROFILMASSE
  6
DURCHGEHEND
 62
           7
100
AcDbMText
 10
-9.630665984875
 20
75.0
 30
0.0
 40
6.0
 41
0.0
 71
           5
 72
           1
  1
\A1;50 
1001
TCAD
1000
TCW_REFPOINT
1002
{
1010
-9.630665984875
1020
75.0
1030
0.0
1002
}
1000
TCW_ATTRIBUTE
1002
{
1000
<50>
1002
}
  0
ENDBLK
  5
8C
100
AcDbEntity
  8
0
100
AcDbBlockEnd
  0
BLOCK
  5
8F
100
AcDbEntity
  8
0
100
AcDbBlockBegin
  2
*D6
 70
           1
 10
0.0
 20
0.0
 30
0.0
  3
*D6
  1

  0
LINE
  5
90
100
AcDbEntity
  8
PROFILMASSE
  6
DURCHGEHEND
 62
           7
100
AcDbLine
 10
-1.0
 20
100.0
 30
0.0
 11
-21.950384228706
 21
100.0
 31
0.0
1001
ACAD
1000
TCW40_DEV_WIDTH
1002
{
1040
-3.0
1002
}
1001
TCAD
1000
TCW_ATTRIBUTE
1002
{
1000
<65>
1002
}
  0
LINE
  5
91
100
AcDbEntity
  8
PROFILMASSE
  6
DURCHGEHEND
 62
           7
100
AcDbLine
 10
-1.0
 20
35.0
 30
0.0
 11
-21.950384228706
 21
35.0
 31
0.0
1001
ACAD
1000
TCW40_DEV_WIDTH
1002
{
1040
-3.0
1002
}
1001
TCAD
1000
TCW_ATTRIBUTE
1002
{
1000
<65>
1002
}
  0
LWPOLYLINE
  5
92
100
AcDbEntity
  8
PROFILMASSE
  6
DURCHGEHEND
 62
           7
100
AcDbPolyline
 90
        4
 70
           0
 10
-19.950384228706
 20
97.0
 10
-19.950384228706
 20
97.0
 10
-19.950384228706
 20
97.0
 10
-19.950384228706
 20
74.5
1001
ACAD
1000
TCW40_DEV_WIDTH
1002
{
1040
-3.0
1002
}
1001
TCAD
1000
TCW_ATTRIBUTE
1002
{
1000
<65>
1002
}
  0
LWPOLYLINE
  5
93
100
AcDbEntity
  8
PROFILMASSE
  6
DURCHGEHEND
 62
           7
100
AcDbPolyline
 90
        4
 70
           0
 10
-19.950384228706
 20
38.0
 10
-19.950384228706
 20
38.0
 10
-19.950384228706
 20
38.0
 10
-19.950384228706
 20
60.5
1001
ACAD
1000
TCW40_DEV_WIDTH
1002
{
1040
-3.0
1002
}
1001
TCAD
1000
TCW_ATTRIBUTE
1002
{
1000
<65>
1002
}
  0
LWPOLYLINE
  5
95
102
{ACAD_REACTORS
330
94
102
}
100
AcDbEntity
  8
PROFILMASSE
  6
DURCHGEHEND
 62
           7
100
AcDbPolyline
 90
        4
 70
           0
 10
-19.950384228706
 20
100.0
 10
-20.340384228706
 20
97.0
 10
-19.560384228706
 20
97.0
 10
-19.950384228706
 20
100.0
1001
ACAD
1000
TCW40_DEV_WIDTH
1002
{
1040
-3.0
1002
}
1001
TCAD
1000
TCW_ATTRIBUTE
1002
{
1000
<65>
1002
}
  0
HATCH
  5
94
100
AcDbEntity
  8
PROFILMASSE
  6
DURCHGEHEND
 62
           7
100
AcDbHatch
 10
0.0
 20
0.0
 30
0.0
210
0.0
220
0.0
230
1.0
  2
SOLID
 70
           1
 71
           1
 91
        1
 92
        3
 72
           0
 73
           1
 93
        3
 10
-19.950384228705694
 20
99.999999999999986
 10
-20.340384228705695
 20
96.999999999999986
 10
-19.560384228705693
 20
96.999999999999986
 97
        1
330
95
 75
           0
 76
           0
 98
        0
1001
TCAD
1000
TCW_ATTRIBUTE
1002
{
1000
<65>
1002
}
  0
LWPOLYLINE
  5
97
102
{ACAD_REACTORS
330
96
102
}
100
AcDbEntity
  8
PROFILMASSE
  6
DURCHGEHEND
 62
           7
100
AcDbPolyline
 90
        4
 70
           0
 10
-19.950384228706
 20
35.0
 10
-19.560384228706
 20
38.0
 10
-20.340384228706
 20
38.0
 10
-19.950384228706
 20
35.0
1001
ACAD
1000
TCW40_DEV_WIDTH
1002
{
1040
-3.0
1002
}
1001
TCAD
1000
TCW_ATTRIBUTE
1002
{
1000
<65>
1002
}
  0
HATCH
  5
96
100
AcDbEntity
  8
PROFILMASSE
  6
DURCHGEHEND
 62
           7
100
AcDbHatch
 10
0.0
 20
0.0
 30
0.0
210
0.0
220
0.0
230
1.0
  2
SOLID
 70
           1
 71
           1
 91
        1
 92
        3
 72
           0
 73
           1
 93
        3
 10
-19.950384228705691
 20
35.0
 10
-19.56038422870569
 20
38.0
 10
-20.340384228705691
 20
38.0
 97
        1
330
97
 75
           0
 76
           0
 98
        0
1001
TCAD
1000
TCW_ATTRIBUTE
1002
{
1000
<65>
1002
}
  0
MTEXT
  5
98
100
AcDbEntity
  8
PROFILMASSE
  6
DURCHGEHEND
 62
           7
100
AcDbMText
 10
-19.950384228706
 20
67.5
 30
0.0
 40
6.0
 41
0.0
 71
           5
 72
           1
  1
\A1;65 
1001
TCAD
1000
TCW_REFPOINT
1002
{
1010
-19.950384228706
1020
67.5
1030
0.0
1002
}
1000
TCW_ATTRIBUTE
1002
{
1000
<65>
1002
}
  0
ENDBLK
  5
99
100
AcDbEntity
  8
0
100
AcDbBlockEnd
  0
BLOCK
  5
9C
100
AcDbEntity
  8
0
100
AcDbBlockBegin
  2
*D7
 70
           1
 10
0.0
 20
0.0
 30
0.0
  3
*D7
  1

  0
LINE
  5
9D
100
AcDbEntity
  8
PROFILMASSE
  6
DURCHGEHEND
 62
           7
100
AcDbLine
 10
-1.0
 20
100.0
 30
0.0
 11
-31.781593289732
 21
100.0
 31
0.0
1001
ACAD
1000
TCW40_DEV_WIDTH
1002
{
1040
-3.0
1002
}
1001
TCAD
1000
TCW_ATTRIBUTE
1002
{
1000
<100>
1002
}
  0
LINE
  5
9E
100
AcDbEntity
  8
PROFILMASSE
  6
DURCHGEHEND
 62
           7
100
AcDbLine
 10
-1.0
 20
0.0
 30
0.0
 11
-31.781593289732
 21
0.0
 31
0.0
1001
ACAD
1000
TCW40_DEV_WIDTH
1002
{
1040
-3.0
1002
}
1001
TCAD
1000
TCW_ATTRIBUTE
1002
{
1000
<100>
1002
}
  0
LWPOLYLINE
  5
9F
100
AcDbEntity
  8
PROFILMASSE
  6
DURCHGEHEND
 62
           7
100
AcDbPolyline
 90
        4
 70
           0
 10
-29.781593289732
 20
97.0
 10
-29.781593289732
 20
97.0
 10
-29.781593289732
 20
97.0
 10
-29.781593289732
 20
57.0
1001
ACAD
1000
TCW40_DEV_WIDTH
1002
{
1040
-3.0
1002
}
1001
TCAD
1000
TCW_ATTRIBUTE
1002
{
1000
<100>
1002
}
  0
LWPOLYLINE
  5
A0
100
AcDbEntity
  8
PROFILMASSE
  6
DURCHGEHEND
 62
           7
100
AcDbPolyline
 90
        4
 70
           0
 10
-29.781593289732
 20
3.0
 10
-29.781593289732
 20
3.0
 10
-29.781593289732
 20
3.0
 10
-29.781593289732
 20
43.0
1001
ACAD
1000
TCW40_DEV_WIDTH
1002
{
1040
-3.0
1002
}
1001
TCAD
1000
TCW_ATTRIBUTE
1002
{
1000
<100>
1002
}
  0
LWPOLYLINE
  5
A2
102
{ACAD_REACTORS
330
A1
102
}
100
AcDbEntity
  8
PROFILMASSE
  6
DURCHGEHEND
 62
           7
100
AcDbPolyline
 90
        4
 70
           0
 10
-29.781593289732
 20
100.0
 10
-30.171593289732
 20
97.0
 10
-29.391593289732
 20
97.0
 10
-29.781593289732
 20
100.0
1001
ACAD
1000
TCW40_DEV_WIDTH
1002
{
1040
-3.0
1002
}
1001
TCAD
1000
TCW_ATTRIBUTE
1002
{
1000
<100>
1002
}
  0
HATCH
  5
A1
100
AcDbEntity
  8
PROFILMASSE
  6
DURCHGEHEND
 62
           7
100
AcDbHatch
 10
0.0
 20
0.0
 30
0.0
210
0.0
220
0.0
230
1.0
  2
SOLID
 70
           1
 71
           1
 91
        1
 92
        3
 72
           0
 73
           1
 93
        3
 10
-29.781593289731621
 20
99.999999999999986
 10
-30.171593289731621
 20
96.999999999999986
 10
-29.39159328973162
 20
96.999999999999986
 97
        1
330
A2
 75
           0
 76
           0
 98
        0
1001
TCAD
1000
TCW_ATTRIBUTE
1002
{
1000
<100>
1002
}
  0
LWPOLYLINE
  5
A4
102
{ACAD_REACTORS
330
A3
102
}
100
AcDbEntity
  8
PROFILMASSE
  6
DURCHGEHEND
 62
           7
100
AcDbPolyline
 90
        4
 70
           0
 10
-29.781593289732
 20
0.0
 10
-29.391593289732
 20
3.0
 10
-30.171593289732
 20
3.0
 10
-29.781593289732
 20
0.0
1001
ACAD
1000
TCW40_DEV_WIDTH
1002
{
1040
-3.0
1002
}
1001
TCAD
1000
TCW_ATTRIBUTE
1002
{
1000
<100>
1002
}
  0
HATCH
  5
A3
100
AcDbEntity
  8
PROFILMASSE
  6
DURCHGEHEND
 62
           7
100
AcDbHatch
 10
0.0
 20
0.0
 30
0.0
210
0.0
220
0.0
230
1.0
  2
SOLID
 70
           1
 71
           1
 91
        1
 92
        3
 72
           0
 73
           1
 93
        3
 10
-29.781593289731614
 20
0.0000000000000018
 10
-29.391593289731613
 20
3.0000000000000018
 10
-30.171593289731614
 20
3.0000000000000018
 97
        1
330
A4
 75
           0
 76
           0
 98
        0
1001
TCAD
1000
TCW_ATTRIBUTE
1002
{
1000
<100>
1002
}
  0
MTEXT
  5
A5
100
AcDbEntity
  8
PROFILMASSE
  6
DURCHGEHEND
 62
           7
100
AcDbMText
 10
-29.781593289732
 20
50.0
 30
0.0
 40
6.0
 41
0.0
 71
           5
 72
           1
  1
\A1;100 
1001
TCAD
1000
TCW_REFPOINT
1002
{
1010
-29.781593289732
1020
50.0
1030
0.0
1002
}
1000
TCW_ATTRIBUTE
1002
{
1000
<100>
1002
}
  0
ENDBLK
  5
A6
100
AcDbEntity
  8
0
100
AcDbBlockEnd
  0
BLOCK
  5
A9
100
AcDbEntity
  8
0
100
AcDbBlockBegin
  2
*D8
 70
           1
 10
0.0
 20
0.0
 30
0.0
  3
*D8
  1

  0
LWPOLYLINE
  5
AA
100
AcDbEntity
  8
BEBAUUNGSMASSE
  6
DURCHGEHEND
 62
           7
100
AcDbPolyline
 90
        2
 70
           0
 10
-2.608555725601
 20
100.0
 10
-42.182056132595
 20
100.0
1001
ACAD
1000
TCW40_DEV_WIDTH
1002
{
1040
-3.0
1002
}
1001
TCAD
1000
TCW_ATTRIBUTE
1002
{
1000
Schienenoberkante
1002
}
  0
LWPOLYLINE
  5
AB
100
AcDbEntity
  8
BEBAUUNGSMASSE
  6
DURCHGEHEND
 62
           7
100
AcDbPolyline
 90
        2
 70
           0
 10
157.0
 20
104.0
 10
-42.182056132595
 20
104.0
1001
ACAD
1000
TCW40_DEV_WIDTH
1002
{
1040
-3.0
1002
}
1001
TCAD
1000
TCW_ATTRIBUTE
1002
{
1000
Schienenoberkante
1002
}
  0
LWPOLYLINE
  5
AC
100
AcDbEntity
  8
BEBAUUNGSMASSE
  6
DURCHGEHEND
 62
           7
100
AcDbPolyline
 90
        3
 70
           0
 10
-40.182056132595
 20
72.66512345679
 10
-40.182056132595
 20
96.5
 10
-40.182056132595
 20
97.0
1001
ACAD
1000
TCW40_DEV_WIDTH
1002
{
1040
-3.0
1002
}
1001
TCAD
1000
TCW_ATTRIBUTE
1002
{
1000
Schienenoberkante
1002
}
  0
LWPOLYLINE
  5
AD
100
AcDbEntity
  8
BEBAUUNGSMASSE
  6
DURCHGEHEND
 62
           7
100
AcDbPolyline
 90
        2
 70
           0
 10
-40.182056132595
 20
110.0
 10
-40.182056132595
 20
107.0
1001
ACAD
1000
TCW40_DEV_WIDTH
1002
{
1040
-3.0
1002
}
1001
TCAD
1000
TCW_ATTRIBUTE
1002
{
1000
Schienenoberkante
1002
}
  0
LWPOLYLINE
  5
AE
100
AcDbEntity
  8
BEBAUUNGSMASSE
  6
DURCHGEHEND
 62
           7
100
AcDbPolyline
 90
        2
 70
           0
 10
-40.182056132595
 20
104.0
 40
0.0
 41
0.0
 10
-40.182056132595
 20
100.0
 40
0.0
 41
0.0
1001
ACAD
1000
TCW40_DEV_WIDTH
1002
{
1040
-3.0
1002
}
1001
TCAD
1000
TCW_ATTRIBUTE
1002
{
1000
Schienenoberkante
1002
}
  0
LWPOLYLINE
  5
B0
102
{ACAD_REACTORS
330
AF
102
}
100
AcDbEntity
  8
BEBAUUNGSMASSE
  6
DURCHGEHEND
 62
           7
100
AcDbPolyline
 90
        4
 70
           0
 10
-40.182056132595
 20
104.0
 10
-39.792056132595
 20
107.0
 10
-40.572056132595
 20
107.0
 10
-40.182056132595
 20
104.0
1001
ACAD
1000
TCW40_DEV_WIDTH
1002
{
1040
-3.0
1002
}
1001
TCAD
1000
TCW_ATTRIBUTE
1002
{
1000
Schienenoberkante
1002
}
  0
HATCH
  5
AF
100
AcDbEntity
  8
BEBAUUNGSMASSE
  6
DURCHGEHEND
 62
           7
100
AcDbHatch
 10
0.0
 20
0.0
 30
0.0
210
0.0
220
0.0
230
1.0
  2
SOLID
 70
           1
 71
           1
 91
        1
 92
        3
 72
           0
 73
           1
 93
        3
 10
-40.182056132594937
 20
104.0
 10
-39.792056132594936
 20
107.0
 10
-40.572056132594938
 20
107.0
 97
        1
330
B0
 75
           0
 76
           0
 98
        0
1001
TCAD
1000
TCW_ATTRIBUTE
1002
{
1000
Schienenoberkante
1002
}
  0
LWPOLYLINE
  5
B2
102
{ACAD_REACTORS
330
B1
102
}
100
AcDbEntity
  8
BEBAUUNGSMASSE
  6
DURCHGEHEND
 62
           7
100
AcDbPolyline
 90
        4
 70
           0
 10
-40.182056132595
 20
100.0
 10
-40.572056132595
 20
97.0
 10
-39.792056132595
 20
97.0
 10
-40.182056132595
 20
100.0
1001
ACAD
1000
TCW40_DEV_WIDTH
1002
{
1040
-3.0
1002
}
1001
TCAD
1000
TCW_ATTRIBUTE
1002
{
1000
Schienenoberkante
1002
}
  0
HATCH
  5
B1
100
AcDbEntity
  8
BEBAUUNGSMASSE
  6
DURCHGEHEND
 62
           7
100
AcDbHatch
 10
0.0
 20
0.0
 30
0.0
210
0.0
220
0.0
230
1.0
  2
SOLID
 70
           1
 71
           1
 91
        1
 92
        3
 72
           0
 73
           1
 93
        3
 10
-40.182056132594937
 20
99.999999999999986
 10
-40.572056132594938
 20
96.999999999999986
 10
-39.792056132594936
 20
96.999999999999986
 97
        1
330
B2
 75
           0
 76
           0
 98
        0
1001
TCAD
1000
TCW_ATTRIBUTE
1002
{
1000
Schienenoberkante
1002
}
  0
MTEXT
  5
B3
100
AcDbEntity
  8
BEBAUUNGSMASSE
  6
DURCHGEHEND
 62
           7
100
AcDbMText
 10
-45.682056132595
 20
99.5
 30
0.0
 40
4.2
 41
0.0
 71
           5
 72
           1
  1
\A1;Schienenoberkante 
 11
0.0
 21
1.0
 31
0.0
1001
TCAD
1000
TCW_REFPOINT
1002
{
1010
-45.682056132595
1020
99.5
1030
0.0
1002
}
1000
TCW_ATTRIBUTE
1002
{
1000
Schienenoberkante
1002
}
  0
ENDBLK
  5
B4
100
AcDbEntity
  8
0
100
AcDbBlockEnd
  0
BLOCK
  5
B7
100
AcDbEntity
  8
0
100
AcDbBlockBegin
  2
*D9
 70
           1
 10
0.0
 20
0.0
 30
0.0
  3
*D9
  1

  0
LINE
  5
B8
100
AcDbEntity
  8
BEBAUUNGSMASSE
  6
DURCHGEHEND
 62
           7
100
AcDbLine
 10
0.0
 20
101.0
 30
0.0
 11
-0.0
 21
116.177600382898
 31
0.0
1001
ACAD
1000
TCW40_DEV_WIDTH
1002
{
1040
-3.0
1002
}
1001
TCAD
1000
TCW_ATTRIBUTE
1002
{
1000
<75>
1002
}
  0
LINE
  5
B9
100
AcDbEntity
  8
BEBAUUNGSMASSE
  6
DURCHGEHEND
 62
           7
100
AcDbLine
 10
75.0
 20
101.0
 30
0.0
 11
75.0
 21
116.177600382898
 31
0.0
1001
ACAD
1000
TCW40_DEV_WIDTH
1002
{
1040
-3.0
1002
}
1001
TCAD
1000
TCW_ATTRIBUTE
1002
{
1000
<75>
1002
}
  0
LWPOLYLINE
  5
BA
100
AcDbEntity
  8
BEBAUUNGSMASSE
  6
DURCHGEHEND
 62
           7
100
AcDbPolyline
 90
        4
 70
           0
 10
3.0
 20
114.177600382898
 10
3.0
 20
114.177600382898
 10
3.0
 20
114.177600382898
 10
22.832451499118
 20
114.177600382898
1001
ACAD
1000
TCW40_DEV_WIDTH
1002
{
1040
-3.0
1002
}
1001
TCAD
1000
TCW_ATTRIBUTE
1002
{
1000
<75>
1002
}
  0
LWPOLYLINE
  5
BB
100
AcDbEntity
  8
BEBAUUNGSMASSE
  6
DURCHGEHEND
 62
           7
100
AcDbPolyline
 90
        4
 70
           0
 10
72.0
 20
114.177600382898
 10
72.0
 20
114.177600382898
 10
72.0
 20
114.177600382898
 10
52.167548500882
 20
114.177600382898
1001
ACAD
1000
TCW40_DEV_WIDTH
1002
{
1040
-3.0
1002
}
1001
TCAD
1000
TCW_ATTRIBUTE
1002
{
1000
<75>
1002
}
  0
LWPOLYLINE
  5
BD
102
{ACAD_REACTORS
330
BC
102
}
100
AcDbEntity
  8
BEBAUUNGSMASSE
  6
DURCHGEHEND
 62
           7
100
AcDbPolyline
 90
        4
 70
           0
 10
0.0
 20
114.177600382898
 10
3.0
 20
113.787600382898
 10
3.0
 20
114.567600382898
 10
0.0
 20
114.177600382898
1001
ACAD
1000
TCW40_DEV_WIDTH
1002
{
1040
-3.0
1002
}
1001
TCAD
1000
TCW_ATTRIBUTE
1002
{
1000
<75>
1002
}
  0
HATCH
  5
BC
100
AcDbEntity
  8
BEBAUUNGSMASSE
  6
DURCHGEHEND
 62
           7
100
AcDbHatch
 10
0.0
 20
0.0
 30
0.0
210
0.0
220
0.0
230
1.0
  2
SOLID
 70
           1
 71
           1
 91
        1
 92
        3
 72
           0
 73
           1
 93
        3
 10
0.0
 20
114.17760038289845
 10
3.0
 20
113.78760038289845
 10
3.0
 20
114.56760038289845
 97
        1
330
BD
 75
           0
 76
           0
 98
        0
1001
TCAD
1000
TCW_ATTRIBUTE
1002
{
1000
<75>
1002
}
  0
LWPOLYLINE
  5
BF
102
{ACAD_REACTORS
330
BE
102
}
100
AcDbEntity
  8
BEBAUUNGSMASSE
  6
DURCHGEHEND
 62
           7
100
AcDbPolyline
 90
        4
 70
           0
 10
75.0
 20
114.177600382898
 10
72.0
 20
114.567600382898
 10
72.0
 20
113.787600382898
 10
75.0
 20
114.177600382898
1001
ACAD
1000
TCW40_DEV_WIDTH
1002
{
1040
-3.0
1002
}
1001
TCAD
1000
TCW_ATTRIBUTE
1002
{
1000
<75>
1002
}
  0
HATCH
  5
BE
100
AcDbEntity
  8
BEBAUUNGSMASSE
  6
DURCHGEHEND
 62
           7
100
AcDbHatch
 10
0.0
 20
0.0
 30
0.0
210
0.0
220
0.0
230
1.0
  2
SOLID
 70
           1
 71
           1
 91
        1
 92
        3
 72
           0
 73
           1
 93
        3
 10
75.000000000000014
 20
114.17760038289849
 10
72.000000000000014
 20
114.56760038289849
 10
72.000000000000014
 20
113.78760038289849
 97
        1
330
BF
 75
           0
 76
           0
 98
        0
1001
TCAD
1000
TCW_ATTRIBUTE
1002
{
1000
<75>
1002
}
  0
MTEXT
  5
C0
100
AcDbEntity
  8
BEBAUUNGSMASSE
  6
DURCHGEHEND
 62
           7
100
AcDbMText
 10
37.5
 20
114.177600382898
 30
0.0
 40
6.0
 41
0.0
 71
           5
 72
           1
  1
\A1;75 mm
1001
TCAD
1000
TCW_REFPOINT
1002
{
1010
37.5
1020
114.177600382898
1030
0.0
1002
}
1000
TCW_ATTRIBUTE
1002
{
1000
<75>
1002
}
  0
ENDBLK
  5
C1
100
AcDbEntity
  8
0
100
AcDbBlockEnd
  0
BLOCK
  5
C4
100
AcDbEntity
  8
0
100
AcDbBlockBegin
  2
*D10
 70
           1
 10
0.0
 20
0.0
 30
0.0
  3
*D10
  1

  0
LINE
  5
C5
100
AcDbEntity
  8
BEBAUUNGSMASSE
  6
DURCHGEHEND
 62
           7
100
AcDbLine
 10
0.0
 20
101.0
 30
0.0
 11
-0.0
 21
127.826940292943
 31
0.0
1001
ACAD
1000
TCW40_DEV_WIDTH
1002
{
1040
-3.0
1002
}
1001
TCAD
1000
TCW_ATTRIBUTE
1002
{
1000
<150>
1002
}
  0
LINE
  5
C6
100
AcDbEntity
  8
BEBAUUNGSMASSE
  6
DURCHGEHEND
 62
           7
100
AcDbLine
 10
150.0
 20
101.0
 30
0.0
 11
150.0
 21
127.826940292943
 31
0.0
1001
ACAD
1000
TCW40_DEV_WIDTH
1002
{
1040
-3.0
1002
}
1001
TCAD
1000
TCW_ATTRIBUTE
1002
{
1000
<150>
1002
}
  0
LWPOLYLINE
  5
C7
100
AcDbEntity
  8
BEBAUUNGSMASSE
  6
DURCHGEHEND
 62
           7
100
AcDbPolyline
 90
        4
 70
           0
 10
3.0
 20
125.826940292943
 10
3.0
 20
125.826940292943
 10
3.0
 20
125.826940292943
 10
58.074955908289
 20
125.826940292943
1001
ACAD
1000
TCW40_DEV_WIDTH
1002
{
1040
-3.0
1002
}
1001
TCAD
1000
TCW_ATTRIBUTE
1002
{
1000
<150>
1002
}
  0
LWPOLYLINE
  5
C8
100
AcDbEntity
  8
BEBAUUNGSMASSE
  6
DURCHGEHEND
 62
           7
100
AcDbPolyline
 90
        4
 70
           0
 10
147.0
 20
125.826940292943
 10
147.0
 20
125.826940292943
 10
147.0
 20
125.826940292943
 10
91.925044091711
 20
125.826940292943
1001
ACAD
1000
TCW40_DEV_WIDTH
1002
{
1040
-3.0
1002
}
1001
TCAD
1000
TCW_ATTRIBUTE
1002
{
1000
<150>
1002
}
  0
LWPOLYLINE
  5
CA
102
{ACAD_REACTORS
330
C9
102
}
100
AcDbEntity
  8
BEBAUUNGSMASSE
  6
DURCHGEHEND
 62
           7
100
AcDbPolyline
 90
        4
 70
           0
 10
0.0
 20
125.826940292943
 10
3.0
 20
125.436940292943
 10
3.0
 20
126.216940292943
 10
0.0
 20
125.826940292943
1001
ACAD
1000
TCW40_DEV_WIDTH
1002
{
1040
-3.0
1002
}
1001
TCAD
1000
TCW_ATTRIBUTE
1002
{
1000
<150>
1002
}
  0
HATCH
  5
C9
100
AcDbEntity
  8
BEBAUUNGSMASSE
  6
DURCHGEHEND
 62
           7
100
AcDbHatch
 10
0.0
 20
0.0
 30
0.0
210
0.0
220
0.0
230
1.0
  2
SOLID
 70
           1
 71
           1
 91
        1
 92
        3
 72
           0
 73
           1
 93
        3
 10
0.0
 20
125.82694029294254
 10
3.0
 20
125.43694029294254
 10
3.0
 20
126.21694029294254
 97
        1
330
CA
 75
           0
 76
           0
 98
        0
1001
TCAD
1000
TCW_ATTRIBUTE
1002
{
1000
<150>
1002
}
  0
LWPOLYLINE
  5
CC
102
{ACAD_REACTORS
330
CB
102
}
100
AcDbEntity
  8
BEBAUUNGSMASSE
  6
DURCHGEHEND
 62
           7
100
AcDbPolyline
 90
        4
 70
           0
 10
150.0
 20
125.826940292943
 10
147.0
 20
126.216940292943
 10
147.0
 20
125.436940292943
 10
150.0
 20
125.826940292943
1001
ACAD
1000
TCW40_DEV_WIDTH
1002
{
1040
-3.0
1002
}
1001
TCAD
1000
TCW_ATTRIBUTE
1002
{
1000
<150>
1002
}
  0
HATCH
  5
CB
100
AcDbEntity
  8
BEBAUUNGSMASSE
  6
DURCHGEHEND
 62
           7
100
AcDbHatch
 10
0.0
 20
0.0
 30
0.0
210
0.0
220
0.0
230
1.0
  2
SOLID
 70
           1
 71
           1
 91
        1
 92
        3
 72
           0
 73
           1
 93
        3
 10
150.0
 20
125.82694029294255
 10
147.0
 20
126.21694029294255
 10
147.0
 20
125.43694029294255
 97
        1
330
CC
 75
           0
 76
           0
 98
        0
1001
TCAD
1000
TCW_ATTRIBUTE
1002
{
1000
<150>
1002
}
  0
MTEXT
  5
CD
100
AcDbEntity
  8
BEBAUUNGSMASSE
  6
DURCHGEHEND
 62
           7
100
AcDbMText
 10
75.0
 20
125.826940292943
 30
0.0
 40
6.0
 41
0.0
 71
           5
 72
           1
  1
\A1;150 mm
1001
TCAD
1000
TCW_REFPOINT
1002
{
1010
75.0
1020
125.826940292943
1030
0.0
1002
}
1000
TCW_ATTRIBUTE
1002
{
1000
<150>
1002
}
  0
ENDBLK
  5
CE
100
AcDbEntity
  8
0
100
AcDbBlockEnd
  0
BLOCK
  5
D5
100
AcDbEntity
  8
0
100
AcDbBlockBegin
  2
*D11
 70
           1
 10
0.0
 20
0.0
 30
0.0
  3
*D11
  1

  0
LINE
  5
D6
100
AcDbEntity
  8
BEBAUUNGSMASSE
  6
DURCHGEHEND
 62
           7
100
AcDbLine
 10
35.0
 20
98.072648844667
 30
0.0
 11
35.0
 21
84.461524225163
 31
0.0
1001
ACAD
1000
TCW40_DEV_WIDTH
1002
{
1040
-3.0
1002
}
1001
TCAD
1000
TCW_ATTRIBUTE
1002
{
1000
<80>
1002
}
  0
LINE
  5
D7
100
AcDbEntity
  8
BEBAUUNGSMASSE
  6
DURCHGEHEND
 62
           7
100
AcDbLine
 10
115.0
 20
98.072648844667
 30
0.0
 11
115.0
 21
84.461524225163
 31
0.0
1001
ACAD
1000
TCW40_DEV_WIDTH
1002
{
1040
-3.0
1002
}
1001
TCAD
1000
TCW_ATTRIBUTE
1002
{
1000
<80>
1002
}
  0
LWPOLYLINE
  5
D8
100
AcDbEntity
  8
BEBAUUNGSMASSE
  6
DURCHGEHEND
 62
           7
100
AcDbPolyline
 90
        4
 70
           0
 10
38.0
 20
86.461524225163
 10
38.0
 20
86.461524225163
 10
38.0
 20
86.461524225163
 10
75.0
 20
86.461524225163
1001
ACAD
1000
TCW40_DEV_WIDTH
1002
{
1040
-3.0
1002
}
1001
TCAD
1000
TCW_ATTRIBUTE
1002
{
1000
<80>
1002
}
  0
LWPOLYLINE
  5
D9
100
AcDbEntity
  8
BEBAUUNGSMASSE
  6
DURCHGEHEND
 62
           7
100
AcDbPolyline
 90
        4
 70
           0
 10
112.0
 20
86.461524225163
 10
112.0
 20
86.461524225163
 10
112.0
 20
86.461524225163
 10
75.0
 20
86.461524225163
1001
ACAD
1000
TCW40_DEV_WIDTH
1002
{
1040
-3.0
1002
}
1001
TCAD
1000
TCW_ATTRIBUTE
1002
{
1000
<80>
1002
}
  0
LWPOLYLINE
  5
DB
102
{ACAD_REACTORS
330
DA
102
}
100
AcDbEntity
  8
BEBAUUNGSMASSE
  6
DURCHGEHEND
 62
           7
100
AcDbPolyline
 90
        4
 70
           0
 10
35.0
 20
86.461524225163
 10
38.0
 20
86.071524225163
 10
38.0
 20
86.851524225163
 10
35.0
 20
86.461524225163
1001
ACAD
1000
TCW40_DEV_WIDTH
1002
{
1040
-3.0
1002
}
1001
TCAD
1000
TCW_ATTRIBUTE
1002
{
1000
<80>
1002
}
  0
HATCH
  5
DA
100
AcDbEntity
  8
BEBAUUNGSMASSE
  6
DURCHGEHEND
 62
           7
100
AcDbHatch
 10
0.0
 20
0.0
 30
0.0
210
0.0
220
0.0
230
1.0
  2
SOLID
 70
           1
 71
           1
 91
        1
 92
        3
 72
           0
 73
           1
 93
        3
 10
34.999999999999986
 20
86.461524225163132
 10
37.999999999999986
 20
86.071524225163131
 10
37.999999999999986
 20
86.851524225163132
 97
        1
330
DB
 75
           0
 76
           0
 98
        0
1001
TCAD
1000
TCW_ATTRIBUTE
1002
{
1000
<80>
1002
}
  0
LWPOLYLINE
  5
DD
102
{ACAD_REACTORS
330
DC
102
}
100
AcDbEntity
  8
BEBAUUNGSMASSE
  6
DURCHGEHEND
 62
           7
100
AcDbPolyline
 90
        4
 70
           0
 10
115.0
 20
86.461524225163
 10
112.0
 20
86.851524225163
 10
112.0
 20
86.071524225163
 10
115.0
 20
86.461524225163
1001
ACAD
1000
TCW40_DEV_WIDTH
1002
{
1040
-3.0
1002
}
1001
TCAD
1000
TCW_ATTRIBUTE
1002
{
1000
<80>
1002
}
  0
HATCH
  5
DC
100
AcDbEntity
  8
BEBAUUNGSMASSE
  6
DURCHGEHEND
 62
           7
100
AcDbHatch
 10
0.0
 20
0.0
 30
0.0
210
0.0
220
0.0
230
1.0
  2
SOLID
 70
           1
 71
           1
 91
        1
 92
        3
 72
           0
 73
           1
 93
        3
 10
115.0
 20
86.461524225163146
 10
112.0
 20
86.851524225163146
 10
112.0
 20
86.071524225163145
 97
        1
330
DD
 75
           0
 76
           0
 98
        0
1001
TCAD
1000
TCW_ATTRIBUTE
1002
{
1000
<80>
1002
}
  0
MTEXT
  5
DE
100
AcDbEntity
  8
BEBAUUNGSMASSE
  6
DURCHGEHEND
 62
           7
100
AcDbMText
 10
75.0
 20
93.461524225163
 30
0.0
 40
6.0
 41
0.0
 71
           5
 72
           1
  1
\A1;80 mm
1001
TCAD
1000
TCW_REFPOINT
1002
{
1010
75.0
1020
93.461524225163
1030
0.0
1002
}
1000
TCW_ATTRIBUTE
1002
{
1000
<80>
1002
}
  0
ENDBLK
  5
DF
100
AcDbEntity
  8
0
100
AcDbBlockEnd
  0
ENDSEC
  0
SECTION
  2
ENTITIES
  0
LWPOLYLINE
  5
33
100
AcDbEntity
  8
PROFIL
  6
DURCHGEHEND
 62
           7
100
AcDbPolyline
 90
        5
 70
           1
 10
0.0
 20
0.0
 10
500.0
 20
0.0
 10
500.0
 20
100.0
 10
0.0
 20
100.0
 10
0.0
 20
0.0
1001
ACAD
1000
TCW40_DEV_WIDTH
1002
{
1040
0.027559055015
1002
}
1001
TCAD
1000
TCW_CUSTOM_DATA
1002
{
1000
#$AUX@_ToolInfo Properties
1070
           8
1000
Einfügen^JLinie^JPolylinie@Linie Polylinie
1002
}
  0
CIRCLE
  5
34
100
AcDbEntity
  8
PROFIL
  6
DURCHGEHEND
 62
           7
100
AcDbCircle
 10
150.0
 20
35.0
 30
0.0
 40
6.0
1001
ACAD
1000
TCW40_DEV_WIDTH
1002
{
1040
0.027559055015
1002
}
1001
TCAD
1000
TCW_CUSTOM_DATA
1002
{
1000
#$AUX@_ToolInfo Properties
1070
           8
1000
Einfügen^JKreis^JMittelpunktUndPunkt@Kreis MittelpunktUndPunkt
1002
}
  0
CIRCLE
  5
35
100
AcDbEntity
  8
PROFIL
  6
DURCHGEHEND
 62
           7
100
AcDbCircle
 10
60.0
 20
50.0
 30
0.0
 40
6.0
1001
ACAD
1000
TCW40_DEV_WIDTH
1002
{
1040
0.027559055015
1002
}
1001
TCAD
1000
TCW_CUSTOM_DATA
1002
{
1000
#$AUX@_ToolInfo Properties
1070
           8
1000
Einfügen^JKreis^JMittelpunktUndPunkt@Kreis MittelpunktUndPunkt
1002
}
  0
CIRCLE
  5
36
100
AcDbEntity
  8
PROFIL
  6
DURCHGEHEND
 62
           7
100
AcDbCircle
 10
240.0
 20
50.0
 30
0.0
 40
6.0
1001
ACAD
1000
TCW40_DEV_WIDTH
1002
{
1040
0.027559055015
1002
}
1001
TCAD
1000
TCW_CUSTOM_DATA
1002
{
1000
#$AUX@_ToolInfo Properties
1070
           8
1000
Einfügen^JKreis^JMittelpunktUndPunkt@Kreis MittelpunktUndPunkt
1002
}
  0
CIRCLE
  5
37
100
AcDbEntity
  8
PROFIL
  6
DURCHGEHEND
 62
           7
100
AcDbCircle
 10
440.0
 20
50.0
 30
0.0
 40
6.0
1001
ACAD
1000
TCW40_DEV_WIDTH
1002
{
1040
0.027559055015
1002
}
1001
TCAD
1000
TCW_CUSTOM_DATA
1002
{
1000
#$AUX@_ToolInfo Properties
1070
           8
1000
Einfügen^JKreis^JMittelpunktUndPunkt@Kreis MittelpunktUndPunkt
1002
}
  0
LWPOLYLINE
  5
38
100
AcDbEntity
  8
BEBAUUNG
  6
DURCHGEHEND
 62
           7
100
AcDbPolyline
 90
        4
 70
           1
 10
135.0
 20
100.0
 10
135.0
 20
102.0
 10
165.0
 20
102.0
 10
165.0
 20
100.0
1001
ACAD
1000
TCW40_DEV_WIDTH
1002
{
1040
0.019685039297
1002
}
1001
TCAD
1000
TCW_CUSTOM_DATA
1002
{
1000
#$AUX@_ToolInfo Properties
1070
           8
1000
Einfügen^JLinie^JPolylinie@Linie Polylinie
1002
}
  0
LWPOLYLINE
  5
39
100
AcDbEntity
  8
BEBAUUNG
  6
DURCHGEHEND
 62
           7
100
AcDbPolyline
 90
        4
 70
           1
 10
142.0
 20
102.0
 10
142.0
 20
104.0
 10
141.0
 20
104.0
 10
141.0
 20
102.0
1001
ACAD
1000
TCW40_DEV_WIDTH
1002
{
1040
0.019685039297
1002
}
1001
TCAD
1000
TCW_CUSTOM_DATA
1002
{
1000
#$AUX@_ToolInfo Properties
1070
           8
1000
Einfügen^JLinie^JPolylinie@Linie Polylinie
1002
}
  0
LWPOLYLINE
  5
3A
100
AcDbEntity
  8
BEBAUUNG
  6
DURCHGEHEND
 62
           7
100
AcDbPolyline
 90
        4
 70
           1
 10
158.0
 20
102.0
 10
158.0
 20
104.0
 10
159.0
 20
104.0
 10
159.0
 20
102.0
1001
ACAD
1000
TCW40_DEV_WIDTH
1002
{
1040
0.019685039297
1002
}
1001
TCAD
1000
TCW_CUSTOM_DATA
1002
{
1000
#$AUX@_ToolInfo Properties
1070
           8
1000
Einfügen^JLinie^JPolylinie@Linie Polylinie
1002
}
  0
LWPOLYLINE
  5
3B
102
{ACAD_REACTORS
330
3E
102
}
100
AcDbEntity
  8
0
  6
DURCHGEHEND
 62
           7
100
AcDbPolyline
 90
        5
 70
           0
 10
135.0
 20
100.0
 10
135.0
 20
102.0
 10
165.0
 20
102.0
 10
165.0
 20
100.0
 10
135.0
 20
100.0
1001
ACAD
1000
TCW40_DEV_WIDTH
1002
{
1040
-3.0
1002
}
  0
LWPOLYLINE
  5
3C
102
{ACAD_REACTORS
330
3E
102
}
100
AcDbEntity
  8
0
  6
DURCHGEHEND
 62
           7
100
AcDbPolyline
 90
        5
 70
           0
 10
142.0
 20
102.0
 10
142.0
 20
104.0
 10
141.0
 20
104.0
 10
141.0
 20
102.0
 10
142.0
 20
102.0
1001
ACAD
1000
TCW40_DEV_WIDTH
1002
{
1040
-3.0
1002
}
  0
LWPOLYLINE
  5
3D
102
{ACAD_REACTORS
330
3E
102
}
100
AcDbEntity
  8
0
  6
DURCHGEHEND
 62
           7
100
AcDbPolyline
 90
        5
 70
           0
 10
158.0
 20
102.0
 10
158.0
 20
104.0
 10
159.0
 20
104.0
 10
159.0
 20
102.0
 10
158.0
 20
102.0
1001
ACAD
1000
TCW40_DEV_WIDTH
1002
{
1040
-3.0
1002
}
  0
HATCH
  5
3E
100
AcDbEntity
  8
0
  6
DURCHGEHEND
 62
           7
100
AcDbHatch
 10
0.0
 20
0.0
 30
0.0
210
0.0
220
0.0
230
1.0
  2
SOLID
 70
           1
 71
           1
 91
        3
 92
        3
 72
           0
 73
           1
 93
        4
 10
135.0
 20
100.0
 10
135.0
 20
102.0
 10
165.0
 20
102.0
 10
165.0
 20
100.0
 97
        1
330
3B
 92
        3
 72
           0
 73
           1
 93
        4
 10
142.0
 20
102.0
 10
142.0
 20
104.0
 10
141.0
 20
104.0
 10
141.0
 20
102.0
 97
        1
330
3C
 92
        3
 72
           0
 73
           1
 93
        4
 10
158.0
 20
102.0
 10
158.0
 20
104.0
 10
159.0
 20
104.0
 10
159.0
 20
102.0
 97
        1
330
3D
 75
           0
 76
           0
 98
        0
  0
ARC
  5
3F
100
AcDbEntity
  8
BEBAUUNG
  6
DURCHGEHEND
 62
           7
100
AcDbCircle
 10
75.0
 20
-164.166666666667
 30
0.0
 40
268.166666666667
100
AcDbArc
 50
81.421693342362
 51
98.578306657638
1001
ACAD
1000
TCW40_DEV_WIDTH
1002
{
1040
0.019685039297
1002
}
1001
TCAD
1000
TCW_CUSTOM_DATA
1002
{
1000
#$AUX@_ToolInfo Properties
1070
           8
1000
Einfügen^JKreis^J3Punkte@Kreis 3Punkte
1002
}
  0
DIMENSION
  5
4C
100
AcDbEntity
  8
PROFILMASSE
  6
DURCHGEHEND
 62
           7
100
AcDbDimension
  2
*D0
 10
60.0
 20
-8.013830542698
 30
0.0
 11
30.0
 21
-8.013830542698
 31
0.0
  1
<60>
  3
STANDARD
100
AcDbAlignedDimension
 13
0.0
 23
-0.995694324338
 33
0.0
 14
60.0
 24
-0.995694324338
 34
0.0
100
AcDbRotatedDimension
1001
TCAD
1000
TCW_CUSTOM_DATA
1002
{
1000
#$AUX@_ToolInfo Properties
1070
           8
1000
Einfügen^JBemaßung^JOrthogonal@Bemaßung Orthogonal
1002
}
1001
ACAD
1000
DSTYLE
1002
{
1070
         148
1040
0.01
1070
         280
1070
           2
1070
          77
1070
           0
1002
}
  0
DIMENSION
  5
59
100
AcDbEntity
  8
PROFILMASSE
  6
DURCHGEHEND
 62
           7
100
AcDbDimension
  2
*D1
 10
150.0
 20
-21.217306587222
 30
0.0
 11
75.0
 21
-21.217306587222
 31
0.0
  1
<150>
  3
STANDARD
100
AcDbAlignedDimension
 13
0.0
 23
-0.0
 33
0.0
 14
150.0
 24
-0.0
 34
0.0
 50
180.0
100
AcDbRotatedDimension
1001
TCAD
1000
TCW_CUSTOM_DATA
1002
{
1000
#$AUX@_ToolInfo Properties
1070
           8
1000
Einfügen^JBemaßung^JOrthogonal@Bemaßung Orthogonal
1002
}
1001
ACAD
1000
DSTYLE
1002
{
1070
         148
1040
0.01
1070
         280
1070
           2
1070
          77
1070
           0
1002
}
  0
DIMENSION
  5
66
100
AcDbEntity
  8
PROFILMASSE
  6
DURCHGEHEND
 62
           7
100
AcDbDimension
  2
*D2
 10
240.0
 20
-32.536521539147
 30
0.0
 11
120.0
 21
-32.536521539147
 31
0.0
 70
           1
  1
<240>
  3
STANDARD
100
AcDbAlignedDimension
 13
0.0
 23
-0.0
 33
0.0
 14
240.0
 24
-0.0
 34
0.0
1001
TCAD
1000
TCW_CUSTOM_DATA
1002
{
1000
#$AUX@_ToolInfo Properties
1070
           8
1000
Einfügen^JBemaßung^JOrthogonal@Bemaßung Orthogonal
1002
}
1001
ACAD
1000
DSTYLE
1002
{
1070
         148
1040
0.01
1070
         280
1070
           2
1070
          77
1070
           0
1002
}
  0
DIMENSION
  5
73
100
AcDbEntity
  8
PROFILMASSE
  6
DURCHGEHEND
 62
           7
100
AcDbDimension
  2
*D3
 10
440.0
 20
-43.287963395423
 30
0.0
 11
220.0
 21
-43.287963395423
 31
0.0
 70
           1
  1
<440>
  3
STANDARD
100
AcDbAlignedDimension
 13
0.0
 23
-0.0
 33
0.0
 14
440.0
 24
-0.0
 34
0.0
1001
TCAD
1000
TCW_CUSTOM_DATA
1002
{
1000
#$AUX@_ToolInfo Properties
1070
           8
1000
Einfügen^JBemaßung^JOrthogonal@Bemaßung Orthogonal
1002
}
1001
ACAD
1000
DSTYLE
1002
{
1070
         148
1040
0.01
1070
         280
1070
           2
1070
          77
1070
           0
1002
}
  0
DIMENSION
  5
80
100
AcDbEntity
  8
PROFILMASSE
  6
DURCHGEHEND
 62
           7
100
AcDbDimension
  2
*D4
 10
500.0
 20
-53.216414381936
 30
0.0
 11
250.0
 21
-53.216414381936
 31
0.0
  1
<500>
  3
STANDARD
100
AcDbAlignedDimension
 13
0.0
 23
-0.0
 33
0.0
 14
500.0
 24
-0.0
 34
0.0
 50
-180.0
100
AcDbRotatedDimension
1001
TCAD
1000
TCW_CUSTOM_DATA
1002
{
1000
#$AUX@_ToolInfo Properties
1070
           8
1000
Einfügen^JBemaßung^JOrthogonal@Bemaßung Orthogonal
1002
}
1001
ACAD
1000
DSTYLE
1002
{
1070
         148
1040
0.01
1070
         280
1070
           2
1070
          77
1070
           0
1002
}
  0
DIMENSION
  5
8D
100
AcDbEntity
  8
PROFILMASSE
  6
DURCHGEHEND
 62
           7
100
AcDbDimension
  2
*D5
 10
-9.630665984875
 20
50.0
 30
0.0
 11
-9.630665984875
 21
75.0
 31
0.0
 70
           1
  1
<50>
  3
STANDARD
100
AcDbAlignedDimension
 13
0.0
 23
100.0
 33
0.0
 14
0.0
 24
50.0
 34
0.0
 50
-90.0
1001
TCAD
1000
TCW_CUSTOM_DATA
1002
{
1000
#$AUX@_ToolInfo Properties
1070
           8
1000
Einfügen^JBemaßung^JOrthogonal@Bemaßung Orthogonal
1002
}
1001
ACAD
1000
DSTYLE
1002
{
1070
         148
1040
0.01
1070
           3
1000

1070
          77
1070
           0
1002
}
  0
DIMENSION
  5
9A
100
AcDbEntity
  8
PROFILMASSE
  6
DURCHGEHEND
 62
           7
100
AcDbDimension
  2
*D6
 10
-19.950384228706
 20
35.0
 30
0.0
 11
-19.950384228706
 21
67.5
 31
0.0
  1
<65>
  3
STANDARD
100
AcDbAlignedDimension
 13
0.0
 23
100.0
 33
0.0
 14
0.0
 24
35.0
 34
0.0
 50
90.0
100
AcDbRotatedDimension
1001
TCAD
1000
TCW_CUSTOM_DATA
1002
{
1000
#$AUX@_ToolInfo Properties
1070
           8
1000
Einfügen^JBemaßung^JOrthogonal@Bemaßung Orthogonal
1002
}
1001
ACAD
1000
DSTYLE
1002
{
1070
         148
1040
0.01
1070
           3
1000

1070
          77
1070
           0
1070
         172
1070
           0
1070
          74
1070
           1
1002
}
  0
DIMENSION
  5
A7
100
AcDbEntity
  8
PROFILMASSE
  6
DURCHGEHEND
 62
           7
100
AcDbDimension
  2
*D7
 10
-29.781593289732
 20
0.0
 30
0.0
 11
-29.781593289732
 21
50.0
 31
0.0
  1
<100>
  3
STANDARD
100
AcDbAlignedDimension
 13
0.0
 23
100.0
 33
0.0
 14
0.0
 24
0.0
 34
0.0
 50
90.0
100
AcDbRotatedDimension
1001
TCAD
1000
TCW_CUSTOM_DATA
1002
{
1000
#$AUX@_ToolInfo Properties
1070
           8
1000
Einfügen^JBemaßung^JOrthogonal@Bemaßung Orthogonal
1002
}
1001
ACAD
1000
DSTYLE
1002
{
1070
         148
1040
0.01
1070
           3
1000

1070
          77
1070
           0
1002
}
  0
DIMENSION
  5
B5
100
AcDbEntity
  8
BEBAUUNGSMASSE
  6
DURCHGEHEND
 62
           7
100
AcDbDimension
  2
*D8
 10
-40.182056132595
 20
104.0
 30
0.0
 11
-45.682056132595
 21
99.5
 31
0.0
 70
         128
  1
Schienenoberkante
  3
STANDARD
100
AcDbAlignedDimension
 13
-1.608555725601
 23
100.0
 33
0.0
 14
158.0
 24
104.0
 34
0.0
 50
-90.0
100
AcDbRotatedDimension
1001
TCAD
1000
TCW_CUSTOM_DATA
1002
{
1000
#$AUX@_ToolInfo Properties
1070
           8
1000
Einfügen^JBemaßung^JBasislinie@Bemaßung Basislinie
1002
}
1001
ACAD
1000
DSTYLE
1002
{
1070
         148
1040
0.01
1070
         280
1070
           5
1070
           3
1000

1070
          73
1070
           0
1070
         140
1040
4.2
1070
          78
1070
          12
1002
}
  0
DIMENSION
  5
C2
100
AcDbEntity
  8
BEBAUUNGSMASSE
  6
DURCHGEHEND
 62
           7
100
AcDbDimension
  2
*D9
 10
75.0
 20
114.177600382898
 30
0.0
 11
37.5
 21
114.177600382898
 31
0.0
  1
<75>
  3
STANDARD
100
AcDbAlignedDimension
 13
0.0
 23
100.0
 33
0.0
 14
75.0
 24
100.0
 34
0.0
100
AcDbRotatedDimension
1001
TCAD
1000
TCW_CUSTOM_DATA
1002
{
1000
#$AUX@_ToolInfo Properties
1070
           8
1000
Einfügen^JBemaßung^JOrthogonal@Bemaßung Orthogonal
1002
}
1001
ACAD
1000
DSTYLE
1002
{
1070
         148
1040
0.01
1070
          77
1070
           0
1002
}
  0
DIMENSION
  5
CF
100
AcDbEntity
  8
BEBAUUNGSMASSE
  6
DURCHGEHEND
 62
           7
100
AcDbDimension
  2
*D10
 10
150.0
 20
125.826940292943
 30
0.0
 11
75.0
 21
125.826940292943
 31
0.0
  1
<150>
  3
STANDARD
100
AcDbAlignedDimension
 13
0.0
 23
100.0
 33
0.0
 14
150.0
 24
100.0
 34
0.0
 50
180.0
100
AcDbRotatedDimension
1001
TCAD
1000
TCW_CUSTOM_DATA
1002
{
1000
#$AUX@_ToolInfo Properties
1070
           8
1000
Einfügen^JBemaßung^JOrthogonal@Bemaßung Orthogonal
1002
}
1001
ACAD
1000
DSTYLE
1002
{
1070
         148
1040
0.01
1070
          77
1070
           0
1002
}
  0
LINE
  5
D0
100
AcDbEntity
  8
BEBAUUNG
  6
DURCHGEHEND
 62
           7
100
AcDbLine
 10
115.0
 20
100.0
 30
0.0
 11
115.0
 21
101.0
 31
0.0
1001
ACAD
1000
TCW40_DEV_WIDTH
1002
{
1040
0.019685039297
1002
}
1001
TCAD
1000
TCW_CUSTOM_DATA
1002
{
1000
#$AUX@_ToolInfo Properties
1070
           8
1000
Einfügen^JLinie^JEinfach@Linie Einfach
1002
}
  0
LINE
  5
D1
100
AcDbEntity
  8
BEBAUUNG
  6
DURCHGEHEND
 62
           7
100
AcDbLine
 10
35.0
 20
100.0
 30
0.0
 11
35.0
 21
101.0
 31
0.0
1001
ACAD
1000
TCW40_DEV_WIDTH
1002
{
1040
0.019685039297
1002
}
1001
TCAD
1000
TCW_CUSTOM_DATA
1002
{
1000
#$AUX@_ToolInfo Properties
1070
           8
1000
Einfügen^JLinie^JEinfach@Linie Einfach
1002
}
  0
LWPOLYLINE
  5
D2
102
{ACAD_REACTORS
330
D3
102
}
100
AcDbEntity
  8
0
  6
DURCHGEHEND
 62
           7
100
AcDbPolyline
 90
        9
 70
           1
 10
35.0
 20
100.0
 10
35.0
 20
101.0
 10
48.277867780251
 20
102.665281871625
 10
61.622277633581
 20
103.666112610625
 10
75.0
 20
104.0
 10
88.377722366419
 20
103.666112610625
 10
101.722132219749
 20
102.665281871625
 10
115.0
 20
101.0
 10
115.0
 20
100.0
1001
ACAD
1000
TCW40_DEV_WIDTH
1002
{
1040
-3.0
1002
}
  0
HATCH
  5
D3
100
AcDbEntity
  8
0
  6
DURCHGEHEND
 62
           7
100
AcDbHatch
 10
0.0
 20
0.0
 30
0.0
210
0.0
220
0.0
230
1.0
  2
SOLID
 70
           1
 71
           1
 91
        1
 92
        3
 72
           0
 73
           1
 93
        9
 10
35.0
 20
100.0
 10
35.0
 20
101.0
 10
48.277867780250631
 20
102.66528187162474
 10
61.622277633580694
 20
103.66611261062451
 10
75.0
 20
104.00000000000011
 10
88.377722366419306
 20
103.66611261062454
 10
101.72213221974937
 20
102.66528187162477
 10
115.0
 20
101.0
 10
115.0
 20
100.0
 97
        1
330
D2
 75
           0
 76
           0
 98
        0
  0
DIMENSION
  5
E0
100
AcDbEntity
  8
BEBAUUNGSMASSE
  6
DURCHGEHEND
 62
           7
100
AcDbDimension
  2
*D11
 10
115.0
 20
86.461524225163
 30
0.0
 11
75.0
 21
93.461524225163
 31
0.0
  1
<80>
  3
STANDARD
100
AcDbAlignedDimension
 13
35.0
 23
99.072648844667
 33
0.0
 14
115.0
 24
99.072648844667
 34
0.0
100
AcDbRotatedDimension
1001
TCAD
1000
TCW_CUSTOM_DATA
1002
{
1000
#$AUX@_ToolInfo Properties
1070
           8
1000
Einfügen^JBemaßung^JOrthogonal@Bemaßung Orthogonal
1002
}
1001
ACAD
1000
DSTYLE
1002
{
1070
         148
1040
0.01
1002
}
  0
ENDSEC
  0
SECTION
  2
OBJECTS
  0
DICTIONARY
  5
19
100
AcDbDictionary
  3
ACAD_GROUP
350
1A
  3
ACAD_MLINESTYLE
350
1B
  0
DICTIONARY
  5
1A
102
{ACAD_REACTORS
330
19
102
}
100
AcDbDictionary
  0
DICTIONARY
  5
1B
102
{ACAD_REACTORS
330
19
102
}
100
AcDbDictionary
  3
STANDARD
350
1C
  0
MLINESTYLE
  5
1C
100
AcDbMlineStyle
  2
STANDARD
 70
           0
  3

 62
         256
 51
90.0
 52
90.0
 71
           3
 49
5.0
 62
           7
  6
BYLAYER
 49
0.0
 62
           7
  6
BYLAYER
 49
-5.0
 62
           7
  6
BYLAYER
  0
ENDSEC
  0
EOF
